<?xml version="1.0" standalone="no"?>
<!DOCTYPE svg PUBLIC "-//W3C//DTD SVG 1.1//EN" "http://www.w3.org/Graphics/SVG/1.1/DTD/svg11.dtd" >
<svg xmlns="http://www.w3.org/2000/svg">
<metadata>
Created by FontPrep 20130207 at Tue Mar 24 13:09:37 2015
 By Cyrille Bourgois
Generated by Fontographer 4.0
</metadata>
<defs>
<font id="4c4e5f47d591e79f82e423f90c4ed551" horiz-adv-x='1024' >
  <font-face 
    font-family="DanielBlack"
    font-weight="900"
    font-stretch="normal"
    units-per-em="2048"
    panose-1="2 11 10 0 0 0 0 0 0 0"
    ascent="1638"
    descent="-410"
    x-height="762"
    cap-height="1775"
    bbox="-375 -1100 3940 1899"
    underline-thickness="20"
    underline-position="-123"
    unicode-range="U+0009-F002"
  />
<missing-glyph horiz-adv-x="1536" 
d="M1248 32v1216h-960v-1216h960zM256 0v1280h1024v-1280h-1024z" />
    <glyph glyph-name=".notdef" horiz-adv-x="1536" 
d="M1248 32v1216h-960v-1216h960zM256 0v1280h1024v-1280h-1024z" />
    <glyph glyph-name="glyph1" horiz-adv-x="0" 
 />
    <glyph glyph-name="glyph2" horiz-adv-x="1078" 
 />
    <glyph glyph-name=".null" horiz-adv-x="0" 
 />
    <glyph glyph-name=".null" horiz-adv-x="0" 
 />
    <glyph glyph-name="space" unicode="&#x9;" horiz-adv-x="1078" 
 />
    <glyph glyph-name="nonmarkingreturn" unicode="&#xd;" horiz-adv-x="1078" 
 />
    <glyph glyph-name="space.0" unicode=" " horiz-adv-x="1078" 
 />
    <glyph glyph-name="exclam" unicode="!" horiz-adv-x="659" 
d="M159 164q0 18 -4 24q47 54 85 54q7 -2 63 -16q6 -11 17 -31q61 -34 61 -114v-13l-6 -103q-33 -18 -33 -37q0 -9 5 -18q-5 0 -15 -13q-9 4 -29 13q-4 12 -12 29q-6 -5 -6 -9t3 -13q-4 -5 -12 -5t-28 7q0 16 -4 26l-38 -10q-5 18 -40 43q1 59 -1 61q-9 2 -32 14q0 25 -3 37
q29 56 29 74zM517 1741q0 -12 12 -60l-182 -946q0 -4 11 -11v-30q0 -8 -18 -40q1 -66 -32 -79q0 -8 6 -15l-25 -22v10q0 8 -11 17q-20 0 -30 -10q-2 7 -11 25q-11 0 -18 -15q-10 29 -22 45l-21 -4l-11 13q6 20 6 59q-6 5 -16 24q-1 -10 -9 -24v196l106 731l57 191q6 1 42 36
t55 35t53 -26t34 -61q7 -7 25 -21q-1 -6 -1 -18z" />
    <glyph glyph-name="quotedbl" unicode="&#x22;" horiz-adv-x="798" 
d="M711 1513v-122q-10 0 -10 -156v-103l-33 -74l-21 4q-17 -7 -22 -13q-10 2 -21 9q-9 -3 -21 -9q-5 6 -83 24q-37 59 -63 202q-5 26 -5 52v40l7 181l26 119q26 25 35 52l53 11q12 0 33 -14q30 -35 90 -100q35 -58 35 -103zM354 1395q-9 0 -9 -156v-102l-31 -75l-23 5
q-10 -5 -21 -14q-9 2 -20 9q-9 -2 -21 -9q-7 5 -84 25q-36 58 -62 202q-5 24 -5 50v42l5 180l25 119q29 25 37 52l54 11q12 0 32 -13q31 -36 90 -101q33 -58 33 -103v-122z" />
    <glyph glyph-name="numbersign" unicode="#" horiz-adv-x="2072" 
d="M1342 748q0 1 -74 1l-330 -32l-93 -248h114l63 12l246 17zM1232 131q0 14 -3 29l-15 10l-342 -47h-71q-69 0 -87 -19q-18 -20 -24 -80t-29 -110q-61 -68 -81 -68h-22q-7 9 -23 22l-21 -36h-18q-21 29 -52 51q-14 98 -7 123l7 33v44q-27 20 -45 20h-126q-28 1 -101 25
q-72 24 -86 38t-37 47q0 11 11 20q-9 21 -25 31l-17 68q19 24 56 76q0 6 -4 9q16 22 42 52q66 19 82 19h1l159 -7q19 -18 31 -24q47 -11 84 -11h73l97 224v24h-14q-3 7 -5 7h-4q-18 -9 -52 -9t-50 6q-47 -16 -91 -16t-85 47q-4 13 -18 43t-15 66q1 36 21 61q20 26 54 73
q24 26 70 42q107 21 171 26l147 11q10 7 29 40q114 289 268 584q12 23 64 57h14q38 0 64 -58t26 -88t-8 -56q-13 -97 -43 -159t-91 -190q-2 -49 -33 -106q4 -6 20 -15h361q22 10 29 29q60 175 138 311t256 388q22 16 60 45t68 29q76 0 80 -84q24 -44 25 -72q-1 0 -7 -38
t-24 -63q-76 -104 -134 -195t-124 -251q-28 -39 -49 -104q21 -21 48 -23l57 -4q28 -8 83 -25l92 -55q0 -9 -13 -22q30 -42 30 -66t-37 -76h-27q-4 -4 -20 -35l-168 -25l-96 9q-15 0 -53 -8q-4 2 -6 8l-56 -173v-18q13 -13 35 -13t27 4l211 -52q0 -88 16 -111
q-27 -14 -54 -45q-24 -9 -92 -32q0 -6 27 -15l-231 -61q0 -8 5 -8q-5 -1 -25 -12q-8 -40 -8 -59t8 -21l-89 -128l-20 7q-29 -20 -47 -20l-25 4q-8 -9 -27 -21h-16l-45 57q-10 37 -16 91q7 10 7 24z" />
    <glyph glyph-name="dollar" unicode="$" horiz-adv-x="1392" 
d="M773 314q0 -11 5 -11h6q191 40 296 119v28q-17 28 -85 123q-35 51 -99 84q-9 -10 -20 -10l-103 -315v-18zM417 1370h64l210 35l184 16q5 2 38 39q21 46 67 140q42 139 122 231q22 6 53 16q46 -30 76 -80q37 -105 39 -114q0 -50 -18 -94t-51 -120l138 -59q68 -59 68 -179
q0 -36 -37 -77q-57 0 -82 -10l-125 31q-36 -8 -52 -8h-23q-8 0 -43 -37q-59 -127 -62 -137l5 -21q114 -95 204 -216t99 -193q24 -82 24 -90v-9l-4 -89q-30 -165 -135 -242q-5 -4 -44 -33q-87 -49 -208 -76q-80 -29 -129 -29l-22 4q-90 0 -110 -55l-33 -151q-6 -31 -40 -197
q-15 -39 -52 -119q-11 -7 -40 -35l-10 10l-23 -5l-6 26q-15 6 -45 15q-10 18 -31 53q0 37 -11 98l42 319q-7 9 -6 23q-15 8 -31 8l-23 -4q-80 0 -278 47q-13 7 -35 16q-19 23 -84 76v115l9 10q0 7 18 64q5 0 16 10h20q35 0 56 -4q7 4 7 9q24 -2 64 -11q0 -4 -7 -13l10 -6h45
l18 10l141 -16h132l156 583q-151 116 -369 296l18 16l4 113q11 14 47 80q75 17 75 20z" />
    <glyph glyph-name="percent" unicode="%" horiz-adv-x="2201" 
d="M957 362q0 -6 2 -8v23q-2 -9 -2 -15zM1716 596q-39 0 -87 -13q-1 -4 -5 -10h-3q-28 0 -157 -28q-61 -29 -179 -90q-25 -27 -79 -72v-27q13 -16 33 -40q34 -29 103 -83q112 -20 112 -22h77q17 5 131 37q122 65 134 90q35 9 69 45t34 61l-61 60q9 2 17 14q15 -7 41 -20
l14 8q-30 21 -84 54q-9 9 -26 23q-45 13 -84 13zM417 1624q37 -20 57 -20h39q19 0 37 2l33 3h72l111 20q-33 15 -94 40q-33 0 -89 2zM1160 760h-27q-25 -24 -25 -57q0 -5 1 -9q-6 -12 -50 -47q-2 -7 -40 -47t-38 -49q-37 -13 -64 -13q-8 -7 -8 -27q-16 -9 -41 -25
q8 -5 21 -17q-25 4 -26 4l-31 -41l4 -33q28 11 96 39t76 76q52 64 88 120q46 25 72 58q34 19 108 56q189 52 189 54t-2 3l259 31q0 -2 107 -15t162 -66q33 -22 132 -126q6 -23 26 -62q16 -88 16 -119t-16 -103q-4 -9 -39 -46q-2 -24 -37 -57t-41 -41h-23l-80 -98
q-36 -4 -90 -38l-87 -53q-31 0 -101 -24q-42 -23 -49 -23l-13 4q-41 0 -61 -24q-14 14 -24 14h-11l-123 -10q-4 -1 -42 11t-62 16l-70 30q-121 31 -208 236q-5 8 -22 20v74l-9 11l-259 -181q6 -4 17 -4q-37 -8 -43 -8q-40 -47 -103 -101q-178 -98 -222 -98l-97 10
q-24 0 -41 -10q-12 6 -43 27v128q0 -12 25 48q29 73 91 138t132 132q243 189 513 468t428 502q6 13 6 25l-39 23q-11 -7 -20 -14q-29 20 -53 20l-88 -20q-8 0 -29 10l-54 -15q-5 -20 -16 -57l-184 -211q-9 -4 -20 -4h-16q-24 -28 -49 -37l-44 -16q-27 -20 -47 -38t-30 -17
q-8 0 -33 -15l-29 -16l-10 6q-10 -25 -58 -34q-10 0 3 15l-9 7q-18 -11 -117 -11l-83 7q-88 0 -200 59t-124 112v17q12 0 15 4q-25 49 -31 95l87 345q0 15 -5 21q21 26 63 71q17 4 88 29q11 8 62 39q20 4 61 21q209 43 257 43q49 0 140 -24t114 -60q-2 -4 -5 -11l193 -116
l184 20h82l70 6q98 0 171 -43q20 -27 30 -37q10 -11 30 -55t19 -46q0 -30 17 -87q-20 -116 -93 -168q-8 -16 -21 -49q-29 -37 -73 -88q-10 -11 -35 -13q-4 0 0 -6v-23l-163 -167l5 -21q-18 -7 -57 -27l10 -7q-6 -8 -6 -13l-20 5l-51 -52q0 -5 -4 -7q13 -13 14 -13zM784 1425
q-20 0 -82 -20q-16 2 -43 9q-4 -7 -20 -20q-22 13 -26 13h-5q-6 -3 -14 -3t-14 7q-43 -15 -43 -17q-87 0 -127 -3q-22 8 -30 8t-10 -1q12 -9 3 -18q-52 0 -70 -2q-11 5 -31 5t-39 -31q2 -10 15 -31l-6 -6q2 -4 2 -20q77 -85 180 -85h33q95 0 217 60t184 159q-39 -12 -44 -14
q-10 10 -30 10zM814 1414h1q-1 1 -1 0z" />
    <glyph glyph-name="ampersand" unicode="&#x26;" horiz-adv-x="1488" 
d="M699 493h-11q-57 -33 -131 -106l-115 -114l-5 -25h23q1 0 190 63q57 34 146 97v18q-19 8 -53 38t-44 29zM1045 1446q-99 0 -309 -197l-79 -99q-24 -98 -26 -98q1 -29 37 -115l23 2q182 175 313 403q12 65 43 104h-2zM1327 222q0 -20 -11 -33q-11 -14 -20 -27
q-65 -15 -65 -17l-50 5l-20 -21l-92 37l-162 -85q-9 -11 -27 -32q-42 -22 -123 -61q-18 -6 -114 -41q-70 -15 -211 -33l-228 44q-2 18 -24 36t-45 39q-58 105 -58 167v9q-9 17 -9 36q2 0 20 109q152 203 244 280t139 134q-116 254 -116 377q0 48 12 84t31 84q40 53 118 135
t182 150q6 6 21 22q41 18 123 53q8 8 21 19q41 16 95 34t151 29q89 -14 175 -98q5 -14 21 -50t43 -42q7 -19 7 -70t-11 -84t-11 -44t5 -30l-76 -160q-25 -40 -49 -112q-22 -35 -67 -99q-60 -114 -182 -204q-25 -29 -81 -97q31 -65 103 -114h15l263 227q31 13 98 33
q10 -13 27 -41q5 3 20 3v-20l31 -34q1 -3 1 -13t-15 -28q6 -10 24 -10l-44 -132l-123 -184q1 -10 23 -60t21 -70z" />
    <glyph glyph-name="quotesingle" unicode="'" horiz-adv-x="434" 
d="M352 1341v-105l-32 -74l-21 4q-9 -6 -20 -14q-9 3 -21 10q-8 -3 -21 -10q-7 8 -83 26q-35 50 -45 102l-21 99q-2 35 -2 59v33l5 181l26 119q26 25 37 50l52 13q13 0 31 -13q31 -36 93 -102q33 -57 33 -102v-122q-11 -82 -11 -154z" />
    <glyph glyph-name="parenleft" unicode="(" horiz-adv-x="1006" 
d="M31 426q0 237 151 600q35 63 116 188q5 27 5 31q25 17 53 67t66 98t186 221q11 21 116 119q28 9 67 48q85 53 118 53t94 -33q5 -20 29 -58l13 -72q0 -130 -149 -193q-9 -9 -27 -29h-20q-4 -6 -15 -18q-4 -2 -85 -56q-8 -6 -55 -47q-11 -16 -33 -57h-6l-218 -305v-9
q-1 -10 -7 -34t-62 -86q-14 -76 -52 -190t-37 -191q0 -248 368 -412q66 -28 236 -102q-1 -4 -11 -12l56 -39q0 -16 22 -47q-16 -15 -16 -23t5 -14l-15 -10q2 -6 2 -18t-12 -33t-12 -28t1 -9q-25 -11 -63 -35q-29 -2 -45 -9l-112 27h-58q-25 -1 -151 59t-175 95h1q3 0 3 23
q-16 18 -27 18v-4l2 -7q0 -2 -4 -5q-5 9 -22 18q3 6 6 13q-55 17 -103 99q-23 41 -85 148q-7 16 -7 33t5 34q-37 109 -37 193z" />
    <glyph glyph-name="parenright" unicode=")" horiz-adv-x="1067" 
d="M432 1877q32 1 60 -23t40 -28v-17q10 -9 34 -29t24 -29v-11q8 -11 20 -11v3q1 0 6 -29q67 -79 90 -111t60 -99q39 -47 104 -205t104 -405l11 -177l-2 -18q0 -286 -190 -547q-174 -176 -326 -248q-28 -25 -72 -69l-330 -187q-30 16 -74 27q-5 25 -20 30q-16 66 -16 71
q0 57 89 190q2 3 2 21q89 87 282 214t216 146q125 104 135 202q25 72 25 135l-8 94q-3 3 -3 13t5 25l-31 163q-14 48 -47 148q-43 77 -58 119q-16 32 -32 47q-62 87 -125 193q-41 35 -69 61t-30 47q-33 35 -35 41v38l11 15l-6 36q89 164 156 164z" />
    <glyph glyph-name="asterisk" unicode="*" horiz-adv-x="983" 
d="M893 1178q0 -28 -30 -58q-1 -11 -1 -20t1 -16q-27 -6 -29 -6l-271 133q-10 -8 -18 -33q-23 -172 -79 -172t-85 111q2 17 2 37t-10 37l-195 -230q-15 0 -33 4q-13 25 -31 31q-22 53 -22 74t28 82t32 77q12 21 24 62q25 33 50 77v19q-9 11 -20 11q-9 18 -9 31
q-108 109 -109 158q2 0 29 64q6 57 38 85h33l180 -85h13l71 195q54 26 64 26q49 0 70 -84q6 -8 28 -52l213 132h18q23 0 56 -53q-2 -19 -2 -52q11 -14 15 -14v-59l-226 -198q123 -89 205 -195v-119z" />
    <glyph glyph-name="plus" unicode="+" horiz-adv-x="1251" 
d="M775 1058q0 -33 -8 -119l9 -7h132l186 -47l105 -150q-8 -18 -23 -53l-72 -27h-57l-72 -16q-24 6 -27 6l-41 -16l-14 5q-8 0 -76 -38q-47 0 -92 -21q-5 -5 -24 -37q-31 -248 -31 -318t5 -91q-12 -20 -12 -37q-8 -6 -20 -16h-22q-5 0 -140 56q-8 11 -26 36q-15 0 -18 6
q-9 -8 -20 -31l-65 52v172l25 191q-2 20 -12 50h-42q-13 -14 -33 -14t-38 10l-10 -10h-20q-7 0 -21 14q-17 -14 -23 -14h-41q-14 45 -16 47q-13 6 -35 14l-68 118q21 138 105 138l296 5q26 62 36 196t47 192q29 27 61 27t39 -5l92 -53q38 -52 60 -117t21 -98z" />
    <glyph glyph-name="comma" unicode="," horiz-adv-x="676" 
d="M623 109q0 -36 -15 -74q-26 -113 -70 -174q-92 -93 -168 -167t-139 -87q-14 -15 -27 -19v1q0 3 -9 14h-33l-1 27q-8 3 -27 16q5 14 6 14h1q-14 18 -40 41q-3 14 -18 44q21 64 153 251t134 287q23 42 82 42q31 0 66 -22q18 -20 55 -59q50 -99 50 -135z" />
    <glyph glyph-name="hyphen" unicode="-" horiz-adv-x="1403" 
d="M451 353q-4 0 -4 1l13 6q-5 -7 -9 -7zM68 574q0 38 15 80q18 14 52 47l174 1l371 -20l188 12q12 2 53 17q10 -4 21 -10l211 24q57 -35 120 -60q27 -35 60 -110q11 -19 31 -51v-18q-6 -5 -35 -46q-38 -27 -110 -32l-359 -27h-266q-166 0 -215 -25l-29 11h-8q-9 -7 3 -15
q-11 -7 -29 -7q-7 9 -17 22h-106q-25 20 -74 57q-7 28 -28 51q-23 61 -23 99z" />
    <glyph glyph-name="period" unicode="." horiz-adv-x="452" 
d="M404 88q0 -24 -28 -51q-31 -13 -108 -35q3 -4 18 -4q0 -20 -3 -22q-5 7 -25 29l-12 -17q-11 10 -32 27q-27 4 -62 29q-12 48 -34 96t-22 55t18 23l-6 42q15 15 39 38q16 3 50 14q101 -42 174 -106l33 -115v-3z" />
    <glyph glyph-name="slash" unicode="/" horiz-adv-x="1499" 
d="M1297 1888q22 0 33 -11q99 -104 99 -166q-10 -72 -10 -82l-21 -35l15 -11q-10 -31 -10 -42q-13 -16 -41 -45q0 -8 9 -8q-11 -8 -11 -18t1 -13t-1 -3q-4 1 -12 8q-7 -9 -42 -69v-2q0 -2 2 -6q8 5 12 5q-5 -11 -16 -44h-21q-25 -28 -25 -47t1 -24q-9 -6 -20 -15q9 -8 9 -16
q-3 0 -29 -10q-11 -27 -52 -77q0 -9 10 -20l-56 -53q1 -6 1 -24t-30 -50q-30 -33 -29 -71v-5q-13 -12 -40 -45l6 -16l-47 -51q0 -7 9 -41q-16 -24 -64 -76v-29q0 -16 -17 -32l-31 -31q4 -13 4 -21t-4 -12q-47 -33 -47 -81v-9q-52 -71 -52 -93v-1q-46 -30 -46 -60q0 -9 4 -16
q-50 -20 -50 -68v-10q-15 -14 -20 -34q2 -4 2 -17q-25 -17 -38 -56t-39 -50v-21l-205 -385q-1 -4 -1 -14t6 -25q-13 -57 -47 -141q-3 -8 -81 -66q6 -3 34 -14q-18 -7 -88 -69h-27l-22 10q-7 -4 -7 -21l-20 6q-10 -16 -23 -16q-18 0 -18 43q0 5 1 11q-37 7 -72 29l20 48
q-3 24 -34 66q5 34 16 97q9 17 27 48q23 86 96 237q10 2 31 60q19 31 59 92q0 8 12 41q38 59 238 405q2 8 4 21q29 35 101 159t291 494q22 62 143 277q2 14 12 45q33 65 90 191q4 13 8 34q27 47 117 161h43z" />
    <glyph glyph-name="zero" unicode="0" horiz-adv-x="2154" 
d="M993 158q145 0 334 92q252 123 407 346t155 464q0 82 -29 173q-30 91 -94 164t-124 98q-39 39 -189 94q-47 9 -126 31l-244 5h-5q-42 0 -164 -27q-7 -6 -23 -11h-24q-2 5 -5 13l-27 6l-154 -69l-185 -162q2 -7 5 -14l-74 -28q-8 10 -31 14q-18 -41 -30 -50
q-23 -33 -58 -112q-33 -141 -35 -141q-1 0 -1 3v-71l-9 -24q0 -25 15 -80q0 -13 -2 -34q99 -314 298 -504q72 -69 248 -150q137 -26 171 -26zM1895 1575q0 5 -10 15q0 -10 10 -15zM2073 1086q-8 -32 -8 -33q0 -83 -38 -239q-22 -59 -75 -177q-3 -22 -45 -91
q-68 -155 -291 -374q-2 -6 -9 -17q-12 -4 -38 -20q0 -8 9 -19h-14l-53 -46h-18q-231 -171 -535 -204q-8 0 -21 -9q-15 0 -39 -2l-25 -2h-8q-72 0 -289 74q-133 88 -234 189v21q-21 26 -58 82q-207 247 -226 586l-5 83v25q0 19 10 57q20 171 100 382q3 9 45 73
q93 196 289 333q9 10 44 31q28 12 52 12q27 21 88 31l27 15q26 2 52 14q24 3 108 17t93 14h135l113 -24h82l17 10q80 -11 89 -11q4 -6 13 -18l26 4q12 -6 31 -19l29 5l96 -31q-2 -3 -9 -10q12 -16 32 -16t37 3l62 -41q-19 10 -22 10t-9 -10l147 -105h2q2 0 5 3l-100 88
q108 -56 185 -152q24 -29 97 -164q3 -14 7 -44q22 -33 22 -77q9 -18 9 -55q16 -22 16 -39v-113z" />
    <glyph glyph-name="one" unicode="1" horiz-adv-x="580" 
d="M244 1681q0 58 29 58q5 13 23 36l9 -10l9 15h20q13 -5 53 -23q12 -5 23 -29q36 -9 62 -81t26 -95v-26l-23 -420q-4 -41 -12 -138v-1q0 -5 7 -15l-51 -475l-81 -468l-13 -18q-20 0 -29 11l-11 -11h-31q-6 -9 -21 -30q-48 10 -53 10l-81 97q-3 -4 -7 -4t-9 6q5 8 5 13
l13 -9l11 12q-5 15 -29 24v145q5 21 18 36v72l7 4q4 14 22 50q5 56 5 69v16q4 29 8 67q14 -1 16 35t5 48q-6 5 -10 13q22 46 30 92v21q0 27 13 58l7 127q25 66 25 89t-10 57l27 556q-2 6 -2 16z" />
    <glyph glyph-name="two" unicode="2" horiz-adv-x="1949" 
d="M930 1890q126 0 246 -70q143 -84 150 -201q18 -72 18 -52v-76l-6 -39t-8 -58q-16 -178 -154 -420q-27 -47 -178 -272q-73 -61 -129 -153q-20 -22 -60 -72q-64 -55 -153 -148l16 -8l747 103l195 -5q38 -5 146 -24t145 -66q0 -15 -7 -20q7 -6 13 -20v-88q-36 -17 -100 -51
q-63 -13 -74 -13h-80l-23 -9h-195l-296 -47q-6 -1 -17 -1t-30 6l-444 -98l-371 -41q-85 0 -113 31q-41 11 -70 77q-31 28 -31 59v79q45 57 66 77t197 192q176 173 295 265q50 46 161 182q147 228 186 307q75 154 75 292q0 71 -31 94t-130 25l-170 -60q0 1 -22 6l-263 -144
q0 -13 -8 -26l-21 4l-147 -86h-74q-11 16 -54 73l-16 64l6 66q53 33 115 85q321 204 492 256q80 25 206 25z" />
    <glyph glyph-name="three" unicode="3" horiz-adv-x="1879" 
d="M1824 351q0 -31 -24 -71t-50 -84l-205 -103q-3 2 -11 2t-24 -6t-169 -40q-21 -14 -45 -18q-268 -46 -293 -46h-66l-157 -20l-240 -7l-316 5q-37 15 -48 15q0 14 -21 34h-15q-10 7 -47 54q-5 23 -17 38q2 0 15 41q0 8 -10 18q5 21 10 50q44 41 63 41l474 -6l333 20
q22 5 57 13q237 22 442 142q0 5 5 10q-26 66 -101 124q-34 26 -123 95l-179 96q-61 21 -180 64q-185 33 -194 39q-4 -1 -8 -4l-61 20h-3q-7 0 -22 -10l-11 12l-184 24l-80 121v16q0 15 19 35l-9 10q4 11 4 25t-4 29l82 54q3 -3 15 -3q104 0 333 103q31 13 95 69t85 87
q53 53 53 74v22q-37 38 -55 45q-108 22 -154 22t-153 -15q-104 -34 -164 -56t-95 -48q-7 -3 -141 -76h-80l-55 61q6 12 6 29q-23 24 -39 29q-2 9 -14 33q-24 0 -29 -5q0 15 5 19q0 5 -17 23q19 22 49 28t35 9q10 20 26 31q52 30 126 61q80 50 308 124q129 28 175 28t142 -14
q164 -24 304 -107l75 -81q40 -45 40 -85q0 -5 -1 -10q14 -21 14 -48q0 -114 -66 -220q-8 -10 -100 -90t-138 -153q28 -27 136 -69t141 -58q100 -58 190 -116q89 -58 225 -221t136 -254z" />
    <glyph glyph-name="four" unicode="4" horiz-adv-x="1967" 
d="M314 579h-31l22 -8zM1644 928q140 0 202 -160q-8 -5 -20 -16q7 -3 16 -17q-36 -47 -53 -65t-46 -25l-272 5l-14 -14q-19 -66 -51 -166t-44 -248l4 -239q-25 -9 -25 -28q0 -5 1 -12q-31 -15 -95 -40q-21 16 -39 16t-29 -7q-9 7 -75 70q2 2 9 20q-3 4 -11 4h-11
q-29 57 -31 62v257l60 301l-7 10h-43l-36 -10l-223 -26q-7 6 -43 6l-190 -28q-16 10 -33 10l-45 -10h-101q-6 0 -16 -11q-10 11 -29 11q-29 -21 -50 -21q-38 8 -46 8t-11 -1q-30 11 -30 14l-20 -7q-3 15 -35 25t-43 26q-7 26 -37 60t-56 42q9 16 15 104q81 152 235 454
q2 3 2 19l288 566q22 5 50 14q24 -18 52 -26q0 -15 77 -100l6 -61q0 -106 -168 -453l-160 -332q-6 -3 -19 -24v-22h94l426 28l290 37q20 67 74 257q3 11 110 311q30 82 116 243q35 45 97 93h20q-5 0 -6 -1q9 -6 63 -18q2 -5 17 -53q8 -28 51 -41l9 -54l-11 -59
q-37 -50 -49 -70t-70 -205q-58 -184 -110 -392l14 -11h105zM1103 -18q1 0 0 1v-1z" />
    <glyph glyph-name="five" unicode="5" horiz-adv-x="1820" 
d="M1577 1789q0 -11 -5 -24q15 -9 48 -59v-18q0 -31 -74 -105l-521 -29h-25q-22 0 -98 19q-4 -1 -13 -10h-49l-31 10l-41 -6h-2l-195 11q-59 -68 -81 -104t-62 -128q27 -27 53 -31q498 -89 760 -216q161 -77 283 -225t122 -282q0 -106 -129 -242q-26 -28 -124 -88t-138 -69
q-58 -33 -101 -51t-129 -37q-31 -12 -91 -31l-453 -86q-27 -15 -49 -21q-51 -8 -87 -26q-141 -18 -141 -19l-37 10q-1 8 -9 23l-20 -3q-14 21 -41 29q0 7 10 17q-6 6 -17 21l-20 -3q19 57 37 75v23q75 64 139 108t112 46q27 10 82 31q213 43 408 89t386 174q87 59 87 99
q0 7 -35 90q-21 12 -62 43q-5 -1 -15 -1t-24 6q-8 22 -30 43h1q0 2 -69 16q-3 12 -25 24q-32 14 -46 20t-66 22t-116 18q-37 13 -36 16l-8 -3q-8 8 -15 20q-53 4 -110 23h-9q-12 0 -12 -4l-302 68q-7 0 -7 -9l-6 9q-9 -9 -13 -9l-35 17q-34 5 -114 47q-15 29 -50 81v22
q-16 17 -39 33l-4 62q0 41 10 69t74 135q5 18 108 233q52 105 186 138l343 -39h103l75 -9h256l208 23q36 -1 88 -21t52 -55z" />
    <glyph glyph-name="six" unicode="6" horiz-adv-x="1967" 
d="M386 465q0 5 -3 12q-5 0 -13 -7q6 -5 16 -5zM701 722q1 2 -5 0t-6 -8q0 -5 1 -5q10 11 10 13zM678 680q0 -6 -87 -48q0 -5 -13 -16q-7 8 -7 16l-101 -66q-5 0 -7 4q-7 -10 -7 -16t1 -10l-42 -37v-10q0 -8 -16 -26t-18 -26q-3 1 -9 11t-13 9q-7 0 -30 -17v-23
q1 -37 87 -101t135 -64q98 -49 223 -49q17 0 33 1l113 5q64 10 184 43q158 29 332 135q15 9 54 30q16 18 49 47q41 12 77 72t36 93q-14 51 -14 59q-22 15 -60 51q-70 39 -160 44l-15 14h-39q-6 13 -54 27q-17 -8 -19 -15l-85 7l-121 -1l-140 -27q-3 -8 -8 -18q-19 -3 -51 -3
q0 -4 -3 -7q-5 5 -11 5l-58 -18q-7 0 -13 5q-3 -8 -17 -14q-7 9 -18 9q4 -2 13 -11l-104 -54q3 -4 3 -10zM1759 316h-14q-5 -7 -34 -35q0 5 -8 12q-6 -2 -15 -15l7 -8h24q1 -2 1 -6t-2 -6t-17 -19l-15 -6q-26 -37 -129 -94l-149 -82l-21 3q-39 -14 -104 -30q-19 -15 -19 -18
l-8 3q-3 -3 -3 -12l-188 -45l-7 3l-106 -21l-74 9l-21 -9l-181 18q-11 11 -11 12h-31q-22 0 -195 71q-15 27 -81 38q-49 49 -100 81v3q0 19 -40 48q1 3 1 5q0 30 -51 43q2 3 15 14q-7 21 -31 34q-86 195 -86 315t25 217q2 1 2 7t-3 14q2 10 19 51q18 107 82 175
q11 62 58 120t147 160q3 30 59 59q3 13 15 35q37 42 158 146t163 125q0 -9 7 -9q14 19 45 56q62 37 112 61q36 11 64 23q29 12 63 12t81 -27q7 -26 35 -56q0 -3 -3 -8l19 -18q-6 -11 -6 -32q-11 -10 -27 -32q-18 -8 -48 -22q10 -11 11 -11q-5 0 -37 -27q-3 4 -16 4
l-164 -120v-22q-7 -4 -38 -15q-16 -13 -53 -48q-48 -8 -53 -62l-341 -348v-1q0 -18 -20 -55t-87 -151q-13 -45 -13 -71q-5 -17 -19 -54q0 -11 14 -17q-9 0 -9 -18q0 2 11 2q2 3 2 9t-1 13l38 32q13 27 30 72l91 70h3q18 0 45 34q9 -2 27 -2t32 21q0 8 -19 18q17 7 25 7
t12 -1q5 4 5 8l266 74q-2 -11 -2 -18t2 -9q3 1 25 5q47 33 55 34l354 15h23q20 -1 97 -17t186 -57q37 -25 106 -68q42 -55 64 -55l64 -115l-3 -31q14 -20 16 -70t6 -54q2 -4 2 -7l12 -100q0 -45 -65 -75q-4 -1 -10 -1q-48 -63 -48 -81z" />
    <glyph glyph-name="seven" unicode="7" horiz-adv-x="1541" 
d="M762 1558q0 4 -7 12v-19q7 3 7 7zM278 1496q-10 0 -19 -10q-31 0 -41 7l23 21l-8 7h-40q-10 1 -10 11q-30 21 -45 21t-21 -2l-60 80v67q0 61 21 90q47 32 50 36h300l433 48h73q21 0 41 6l228 12l143 -23q112 -109 114 -146l-8 -49q-8 -49 -8 -70t6 -30
q-99 -195 -156 -235q-44 -67 -71 -117q-8 -4 -26 -17q4 -7 4 -12q-6 -4 -23 -23q-16 -57 -91 -143q-22 -74 -94 -136q-6 -11 -8 -42q-7 -20 -38 -51l-33 -76q7 -12 7 -18q1 -6 -15 -24t-16 -38t4 -29q-4 3 -8 3t-6 -3v-29q-10 -4 -28 -30q-17 -7 -40 -42t-39 -58
q3 -10 3 -29t-31 -36v-16q-1 -13 -25 -68t-26 -75q4 -8 4 -12q-4 4 -8 4t-5 -2v-40q-12 -11 -29 -38q3 -10 3 -45l-12 -12l-19 7l-7 -9v-17q8 2 19 4v-27q-25 -29 -67 -94l-24 -4q5 11 5 19t-3 14q-2 -3 -2 -13q-53 -20 -82 -20h-30q-20 20 -33 20h-35q-5 11 -22 33
q-4 2 -22 2q13 43 13 49l-19 80q0 11 31 106q23 30 69 143t154 359q37 49 87 155q49 105 154 289l228 350v17q-26 9 -51 9l-87 -6q-20 0 -39 2q-13 14 -24 14t-19 -5l30 -19l-169 -19h-74q-15 0 -15 4l1 2q-27 -15 -31 -15q-4 -1 -12 1t-12 2l1 -1q0 -1 -60 -12l-11 15
q-9 0 -26 -14q-7 -1 -20 -1l-37 2l-21 -9h-88z" />
    <glyph glyph-name="eight" unicode="8" horiz-adv-x="2261" 
d="M1938 594q0 46 -93 129q-93 82 -172 103q-11 8 -111 30t-118 22h-20l-387 -11l-347 -58q-8 -1 -31 -6q-64 -32 -190 -74q-14 -7 -36 -25q-56 -22 -103 -74t-52 -101q14 -30 33 -48q43 -36 45 -40q55 -27 162 -83q44 -11 86 -29l200 -36l175 -4h5q74 0 388 54q52 17 98 25
t76 27q32 5 85 11l248 108q59 34 59 80zM1054 1233q4 0 55 3l54 3q49 0 297 64q46 21 92 29l146 59q7 23 7 31q-41 44 -74 60q-61 49 -226 62l-119 10l-129 -24l-9 11q-66 -17 -218 -60t-240 -127q44 -59 161 -90t203 -31zM1156 3l-111 -17l-230 -14l-19 10h-85l-252 53
q-47 18 -132 56q-63 35 -189 133q-90 136 -90 230t35 191q18 31 57 90q59 117 197 198q66 38 227 99l-6 17q-89 52 -137 157q-26 89 -26 141t59 166t121 146q114 36 114 37q22 0 44 -14l78 -5l18 -7q18 14 49 40l215 70l217 28l102 -15q14 5 37 15q16 -12 78 -16t78 -34
q8 0 8 9q18 -7 37 -20q121 -13 266 -213q18 -52 18 -79l-6 -47q-7 -46 -7 -66q-7 -12 -26 -39q-2 -14 -45 -104q-25 -3 -52 -27t-64 -58q32 -36 75 -43q76 -43 127 -77q7 -12 17 -35q12 -8 42 -24q167 -164 176 -262l-9 -57v-68q0 -1 -10 -29t-13 -39q-2 -11 -30 -39
q-3 -9 -21 -48q-52 -62 -244 -195q-58 -26 -156 -57q-13 -7 -24 -17l-489 -123q-5 2 -19 2z" />
    <glyph glyph-name="nine" unicode="9" horiz-adv-x="1335" 
d="M604 1833q12 0 69 11l69 -9q20 9 26 9t72 -23h10q93 0 200 -98t123 -206q49 -42 49 -270q0 -391 -306 -780q-12 -10 -31 -25q-68 -88 -176 -186t-272 -242q-4 -19 -5 -19q-18 -9 -45 -34q-33 -8 -78 -35h-17l-9 10q-7 -4 -19 -10l-48 48l-25 -5q0 17 -7 24l13 9v17
q-7 5 -19 14v26q0 7 26 99q149 196 415 400q61 66 132 146t91 145q2 1 3 3q-2 4 -8 4h-15q0 -2 -30 -14q-17 0 -60 -6l-43 -6q-6 0 -162 35q-46 26 -151 84l-129 105q-70 57 -96 99q-19 45 -37 104q-6 18 -27 32l-9 127q-1 5 -1 11q1 56 51 134t114 113t147 93l199 77
q4 -11 16 -11zM324 1379q0 -15 47 -53t121 -99q64 -26 188 -79l12 9q30 -18 67 -18l64 3q24 0 55 -10q23 -23 59 -54q2 6 14 37q5 93 8 103l-10 83q-17 151 -124 192q-21 8 -81 31q-13 0 -48 1l-35 2l-99 -10q-22 0 -158 -50q-29 -19 -80 -59v-29z" />
    <glyph glyph-name="colon" unicode=":" horiz-adv-x="377" 
d="M117 281h51q59 -50 126 -129v-84q-63 -74 -118 -74q-21 0 -41 12v14q-14 7 -43 17q-9 14 -18 14l-16 133l5 56q42 41 54 41zM84 679q0 38 22 87t58 49q36 1 64 -23q26 -24 44 -40t38 -59t20 -54v-37l-49 -53q-33 -29 -62 -31q-76 35 -82 35q-53 88 -53 126z" />
    <glyph glyph-name="semicolon" unicode=";" horiz-adv-x="575" 
d="M533 118q0 -24 -30 -94t-46 -84q-69 -76 -162 -156t-140 -122t-67 -41h-37q-32 16 -40 24q-31 26 -52 81q0 24 -12 61v37q0 36 53 95l213 235q13 22 41 65q11 23 33 68t58 49q5 2 15 9q41 -20 115 -75q4 -16 29 -44q29 -84 29 -108zM486 814q0 -34 -11 -54h-3
q-12 0 -32 -24t-28 -27h-21q-26 0 -118 61q-44 53 -44 117q0 22 23 81q29 38 44 38h44q35 -29 102 -72q44 -86 44 -120z" />
    <glyph glyph-name="less" unicode="&#x3c;" horiz-adv-x="1425" 
d="M1458 -285q-9 0 -22 -14q-13 0 -42 10q-6 -2 -20 -14h-21q1 0 1 3t-99 74q-3 14 -15 25q-162 150 -283 189q-11 12 -11 23q-12 7 -45 7l-236 129q-2 0 -8 -6q-48 15 -75 31t-49 54q-35 5 -72 24q-62 50 -93 64q-36 25 -81 36q-39 35 -85 56v1q0 8 4 30q-4 8 -12 8t-12 -1
q-2 6 -39 47q-44 72 -80 170q7 31 29 90q114 109 479 470q116 93 299 280l241 247l59 30q47 -6 107 -54t70 -86q6 -9 20 -33v-114l-166 -160q-3 -3 -3 -7t3 -5q-32 -26 -80 -84q-133 -84 -218 -215q-12 -9 -35 -23q-39 -31 -82 -96q-37 -29 -108 -67q-4 -4 -4 -8t6 -11
q-48 -20 -48 -62q-24 -16 -46 -16q-11 -13 -21 -55q-20 -17 -65 -41q1 -4 1 -10t-1 -12l-17 -9l-4 -18q42 -46 125 -96l135 -82h21q96 -69 179 -94q20 -13 39 -26t44 -16l250 -155q91 -58 128 -76q18 -16 116 -121l23 -67v-74l-53 -74q-4 1 -26 4h-2z" />
    <glyph glyph-name="equal" unicode="=" horiz-adv-x="1479" 
d="M498 265q-3 0 -5 1q5 4 13 8q-5 -9 -8 -9zM383 274q0 -4 6 -8q-8 -8 -29 -8q-4 8 -15 20h-108q-22 20 -71 58q-6 29 -31 51q-23 59 -23 98t17 80q16 17 53 47l172 2l371 -20l189 12q12 1 52 17q9 -4 22 -11l210 25q57 -33 119 -57q23 -28 45 -72t50 -91v-20
q-9 -4 -37 -45q-27 -18 -111 -32l-359 -24h-266q-166 0 -215 -28l-29 12h-8q-4 -2 -4 -6zM108 896q0 46 37 105q37 21 70 27l130 -27l379 -18l304 39q74 -6 125 -23q35 -35 66 -60q14 -23 37 -67q4 -49 17 -67l-31 -43q-66 -35 -105 -40q-127 -20 -209 -24l-345 -15
q-25 -20 -26 -24q-17 9 -53 35l-150 -20q-55 6 -127 16q-36 12 -43 47q-19 15 -34 51q-42 62 -42 108z" />
    <glyph glyph-name="greater" unicode="&#x3e;" horiz-adv-x="1251" 
d="M1162 649q0 -27 12 -35l-134 -177q-39 -29 -101 -87q-5 -5 -5 -14l-295 -268l-20 -7l-200 -239q-5 -6 -40 -6q-9 -9 -43 -31q-9 2 -27 16h-18l-49 -16q-33 0 -62 16q-16 21 -55 69q-8 34 -33 65v77q1 6 9 17q10 65 114 169t486 457q15 17 69 91l-313 332q-9 8 -9 14t2 8
q-11 9 -44 29q-5 47 -61 77q0 5 2 13q-11 7 -24 32q-22 13 -59 44q-18 44 -40 50q-11 11 -27 31q-109 182 -109 231t41 105q42 55 73 58l105 -51q27 -32 59 -61q32 -30 66 -66q36 -36 47 -86q66 -105 222 -292q1 -8 12 -24q199 -199 311 -307q18 -9 51 -23l27 -62
q16 -7 44 -39t28 -55q-12 -28 -12 -55z" />
    <glyph glyph-name="question" unicode="?" horiz-adv-x="1565" 
d="M215 -51v53q0 9 9 22q2 25 5 77q8 11 21 34q-2 3 -2 14t32 41t57 29h5q35 -5 92 -49q31 0 62 -63q13 -56 13 -98l-13 -47q-11 -51 -8 -56q-18 -7 -23 -9l-31 -57q-4 0 -12 6l-5 -10v-16q-5 10 -30 37q-15 -4 -31 -4t-35 4q-1 -9 -12 -21q-10 11 -10 15q1 5 3 5h4t8 5v2
h-24l-48 25l-11 16l4 31q-13 14 -20 14zM258 329h-4q-2 7 -8 24l-11 -11q-8 16 -33 46h-26v3q0 14 -21 23l-3 93l20 162q18 24 32 56q58 128 339 302q7 5 25 7q120 72 282 177q9 5 25 9q65 42 205 132q65 54 144 136v20l-73 55q-95 25 -129 25t-54 -10q-9 3 -75 3
q-39 -14 -80 -14l-40 11q-25 -8 -77 -24q-147 -11 -219 -56q-22 -7 -78 -18q-52 -38 -153 -103q-11 11 -22 16h-40q-7 -10 -16 -10h-13q-1 10 -25 10q-9 19 -9 33q-11 5 -31 14q0 11 -20 43l16 27q6 17 6 33t-6 33l35 88q39 24 112 65q65 23 233 81t287 65l257 15q8 1 46 1
t111 -15t73 -19q63 -1 149 -84q86 -84 104 -147q0 -13 5 -59l6 -46q0 -157 -154 -390q-6 2 -12 2t-13 -4q4 -5 4 -16l-128 -115q-28 -5 -66 -20q-34 -58 -123 -89q-48 -34 -136 -103q-24 -13 -71 -25q-81 -45 -242 -148q-17 6 -28 6t-17 -4l1 -1q0 -4 -5 -8q9 -4 21 -11
q-23 4 -24 4q-9 -13 -38 -26q-3 -3 -3 -6v-5q9 4 13 4q-37 -54 -127 -162q-24 -77 -49 -77l-20 26q-8 -24 -29 -24z" />
    <glyph glyph-name="at" unicode="@" horiz-adv-x="1909" 
d="M1180 1264q-24 0 -58 9q-4 -7 -11 -11q-132 -14 -221 -37t-204 -72l-216 -176v-9q0 -6 -17 -38t-18 -39l-20 -21l-58 -187q-14 -97 -14 -132q0 -97 38 -135t179 -109l195 -31h173q38 0 242 33q79 23 222 68q-66 10 -202 121l-222 -68h-70q-11 0 -22 -11l-40 21
q-4 -3 -15 -3q-64 0 -182 151q-9 26 -34 77q-21 118 -22 118t-1 -1q0 50 37 162q74 61 120 80q214 87 293 87q35 0 118 -26q13 -12 40 -28q13 -2 45 -10l96 -162q-10 -15 -10 -50q1 -35 29 -84t61 -59q13 9 31 12q86 17 150 88t63 156l-11 101q-42 49 -125 147
q-26 20 -104 49t-126 30l-68 -9q-17 -2 -41 -2zM924 733q27 0 93 18t99 50q0 6 -7 14l-38 4l-179 -57q0 -5 -6 -13q10 -5 21 -16h17zM70 786q5 0 26 105q6 19 31 93t55 91q22 78 118 171t181 141q251 104 330 119q173 31 265 31t263 -31q44 -13 134 -38q199 -89 279 -233
q76 -62 87 -155l41 -182l-31 -179q-20 -47 -63 -137q-23 -29 -65 -78q-48 -29 -138 -87v-13q6 -3 24 -17v-24q4 -5 22 -5v-59q-9 -8 -22 -31l17 -31q-28 -39 -28 -50t2 -15q-64 -53 -72 -53t-13 4q-7 -9 -7 -18l-50 -24q-35 -18 -42 -44l-179 -49l-4 7l-223 -40l3 -10
q-10 -3 -30 -1l12 11h-95l-35 -13l-54 11l-49 -4q-77 0 -314 67q-55 33 -165 103q0 21 -35 45l-66 47q-63 87 -114 241q0 9 -6 104l-4 76l14 161v-7zM977 -55q2 0 4 -1l-2 -2q-1 3 -2 3zM977 -55h-1h1z" />
    <glyph glyph-name="A" unicode="A" horiz-adv-x="1653" 
d="M786 1350q0 -6 -2 -8l-11 16q-7 -11 -20 -32q-4 11 -9 26l-146 -320q4 -6 4 -10q-64 -74 -86 -177h17q16 2 40 2q32 -5 44 -6t40 13l65 2l107 -27q5 0 18 7l251 -99q6 7 4 19t-24 111q-24 98 -27 119l-78 247q-49 151 -121 258q-36 -29 -77 -127q11 -8 11 -14zM473 493
q-16 -16 -29 -23q0 9 11 32zM1574 47q0 -21 -7 -49v18q-7 4 -19 19q0 -6 -13 -19q0 -4 11 -14v-22q-7 -7 -22 -7q-9 -24 -25 -51h-107l-96 125q-21 117 -84 190q9 19 9 27q1 8 -5 14q-6 5 -26 49q-39 54 -92 95q-41 41 -84 64l-93 48q-47 2 -79 18t-39 15q-2 8 -10 21h-13
q-7 -7 -16 -21q-51 6 -114 31q-18 -12 -52 -35q-3 7 -20 25q-9 0 -20 -10q-8 3 -20 10l-18 -23q18 -8 25 -16q-75 -9 -99 -43h-42l-11 10q-21 0 -39 -5l-80 -157q-4 -4 -4 -10t4 -15q-14 -28 -37 -69q-42 0 -46 6l-11 -16h-18q-12 23 -34 33t-27 16q0 4 4 10q-15 20 -17 45
q-10 11 -28 37v72l5 23q54 50 78 95q50 49 61 102q18 34 54 99q16 50 62 116q20 50 59 151q8 11 27 40q8 33 8 41q41 82 92 196q52 114 84 166t67 126q35 103 100 252q13 4 38 16q26 -8 81 -19q61 -41 88 -69q9 -16 22 -48q81 -101 222 -470q6 -10 15 -10l22 -80
q0 -13 -8 -20q8 -5 25 -19q49 -135 147 -543q5 -8 12 -20q45 -223 123 -361q0 -18 54 -124q-9 -7 -27 -20q3 -15 3 -36z" />
    <glyph glyph-name="B" unicode="B" horiz-adv-x="1591" 
d="M824 766h-9l-381 -29l6 -5q-1 -29 -8 -82l18 -101q15 -88 61 -176q-5 -6 -22 -19v-30q7 -4 13 -10q72 12 186 59l195 82q41 10 262 137q23 31 27 44q-43 32 -142 69q-37 27 -163 41q-35 20 -43 20zM712 1493q-6 0 -47 -24q-15 0 -46 -2q-39 -23 -108 -53q-15 -13 -48 -36
v-3q0 -18 -13 -31q-9 -42 -9 -72t1 -43l6 -100q384 172 547 350v49h-51l-51 -4l-142 -21q-13 -13 -23 -11t-16 1zM1159 176h-5q-4 0 -22 -16q-5 6 -24 6l-453 -195q-10 0 -21 11l-159 -47q-36 16 -82 16q-6 -1 -26 -10q0 8 10 17q-7 3 -10 3v21q-22 9 -68 31v73q-8 8 -21 25
q13 17 18 45t9 48q-20 31 -55 92q-15 31 -41 97l-27 129v66l-20 139l-7 113l19 276l-12 89q-16 -10 -32 -10t-29 12v30q-29 -23 -29 -34q-25 13 -60 54l-30 13q7 14 14 45l-7 9q-5 -5 -18 -5v68q9 3 9 26t-4 54q79 49 219 168q22 110 86 110q28 0 64 -31h44l268 92
q6 -1 20 -1q13 0 53 14t54 16q162 22 208 22t90 -2q11 -5 40 -18q74 -19 134 -93t59 -142q0 -68 -15 -117q0 -29 -7 -82q-56 -151 -265 -336q2 -3 8 -14q141 -43 287 -141t172 -209q16 -18 49 -119l-43 -101l-8 11q-11 -68 -65 -124t-109 -79q-37 -25 -78 -63q-16 0 -38 -11
h-27q-17 -16 -17 -41z" />
    <glyph glyph-name="C" unicode="C" horiz-adv-x="1778" 
d="M1273 155v2q-2 0 -7 -20q7 0 25 18h-18zM389 93q6 0 12 -7h16q7 0 23 8q-23 13 -31 13t-14 -6q-6 7 -66 29q-4 -3 -4 -13h-18q-2 12 -18 15q-23 11 -27 11q-4 14 -7 15q5 2 5 6q-6 6 -18 6q8 0 12 4l-12 8l-11 -10q-5 6 -16 6q-6 13 -16 37l-58 27q1 3 6 10q-10 3 -26 35
q-14 4 -49 67q-9 88 -19 155l-14 101q0 389 463 811q40 11 76 43t48 32t15 -1q13 18 41 53q55 31 163 90q22 -4 27 -4l87 62l278 76h87q7 -17 20 -48q8 -10 34 -32q-20 -11 -20 -30q0 -68 2 -71q1 2 2 5q12 -11 36 -38q-4 0 -25 -10q1 -3 5 -20l-31 -25q11 -4 42 -15
q-37 -20 -51 -20t-19 2q-4 -6 -15 -14q-29 -4 -81 -14q-13 -10 -75 -36t-130 -56q-54 -35 -211 -117q-90 -82 -168 -131q-62 -64 -182 -211l-24 -15q-16 -10 -16 -26t7 -29q-18 -20 -60 -63q1 -5 4 -19l-30 -112v-74q0 -11 28 -35t42 -25q11 -10 34 -28q6 -2 160 -46
q58 -9 123 -11l176 -7l197 13l266 30q14 0 27 -5l77 26q5 -6 15 -6l117 30h42l11 -14h71q6 -6 6 -23q4 -4 17 -4q-3 -6 -6 -16q14 -13 16 -13q-12 -5 -25 -18t-13 -15t7 -3h30q-3 -5 -15 -38q8 -4 20 -11q-18 -5 -65 -47q-2 -9 -2 -15t2 -12q-7 0 -29 4q-6 0 -12 -18
q-41 -9 -95 -42l-96 -26q-12 0 -16 4q-12 -10 -14 -10q8 -12 30 -27q-7 -2 -25 -2t-61 7q16 0 16 12h-18q-10 -10 -10 -21q-10 11 -31 11v-20l-24 -13q39 0 51 -7q-10 0 -10 -9h-158q-6 0 -6 -7l-139 -24q31 0 90 -17q2 6 11 26h18l-5 -7l22 -4l16 11q0 -5 11 -18h54
q-23 -3 -65 -18q-8 2 -22 10l-7 -10q-7 4 -27 4q-8 -3 -18 -12q24 -6 56 -6l-75 -7q-1 0 -1 2t9 9h-36l9 -8q0 -16 -18 -16h-204q-15 13 -17 13h-10l5 -10h-21q-56 0 -142 -10q-21 18 -12 18q-15 7 -33 7l-37 -5q-43 0 -51 21h-14q-1 -1 -17 -6l-139 49q4 5 10 5zM1757 384
v-1h-1z" />
    <glyph glyph-name="D" unicode="D" horiz-adv-x="1703" 
d="M1255 1442q-16 0 -28 22q4 2 -5 11q-6 -4 -14 -4l-224 83l-237 11l-143 -6q-18 -3 -172 -36q-11 -9 -76 -92l20 -1056l-24 -20v-18q6 0 16 -10l202 57q37 25 162 85t150 75q81 16 326 232t245 352q-8 45 -17 108q-30 70 -76 118q-26 39 -90 93q-11 -5 -15 -5zM1739 1144
q0 -217 -255 -518q-9 -11 -42 -35q-3 -18 -10 -45l-269 -222q-91 -59 -254 -154q0 6 -5 10l-212 -117q-34 -61 -122 -61q-12 0 -25 1q-41 -21 -78 -21l-20 -19l-38 2h-5q-17 0 -33 -16q5 -4 10 -4q-10 -5 -23 -13l8 17l-12 7q-22 -9 -36 -9t-28 16q-22 -5 -40 -5l9 10
q-11 14 -15 14t-18 -4q3 5 4 9l-24 16q-11 2 -39 13q0 16 -5 21q10 12 10 24t-14 27v70q0 12 23 74q-8 28 -27 43q-16 26 -45 78q-16 115 -16 133v609l10 295l-8 8q-31 -8 -145 -101q-9 15 -20 29h-21q-6 0 -6 -10q-22 26 -43 29q-2 35 -38 55q0 4 9 39l-19 19q-1 3 -1 9
t4 16l-10 9v21q19 40 19 50v19q0 10 22 29q443 237 689 257q59 12 62 12h83q24 0 64 10q36 -15 77 -15l54 5q82 0 166 -23q117 -17 157 -44q248 -69 394 -261t147 -408z" />
    <glyph glyph-name="E" unicode="E" horiz-adv-x="1706" 
d="M596 1673q57 14 82 6l402 86q18 0 22 -6q4 6 4 13l73 12q22 -4 72 -12q29 16 42 28q9 0 31 -6l124 25q7 -4 49 -13q11 14 31 23q11 0 11 -16q-15 -9 -33 -15q4 -4 26 -4q3 2 59 17q4 -4 -4 -9q13 -17 15 -17t2 1v-23q5 -2 22 -8q10 10 31 10q53 -13 88 -13q4 -6 4 -9
t-1 -4q-47 -25 -47 -61v-3q-24 -16 -67 -46l8 -7q11 0 15 7q5 -12 5 -18q-3 0 -26 -11l-10 16q-8 -16 -34 -16t-40 -4q5 -5 15 -5q-106 -41 -106 -43v-2q-3 1 -9 6q-4 -8 -20 -28h-52q-43 -51 -96 -51q-8 0 -16 2q-103 -13 -103 -43q-12 0 -22 12q-70 -21 -70 -25
q-16 0 -20 6q-8 -9 -21 -29q-4 2 -12 13q-4 -2 -14 -2t-29 2q-5 -11 -5 -18t1 -12q-3 1 -7 1h-16q-13 -10 -13 -22l-34 4l-58 -17q0 1 -13 7q-9 -10 -9 -23l-135 -59q-15 -49 -48 -129q2 -14 7 -45l523 41h151q0 -23 -2 -29h64q-1 -2 -1 -6t5 -15q-12 -14 -14 -14
q20 -6 54 -24q-13 -23 -47 -33l-8 -17q2 -4 4 -20v-24q-6 -9 -31 -18q3 -8 7 -18l-213 -72q-28 0 -37 7q-16 -13 -76 -22l-31 -35q-11 1 -21 1h-14h-7q-3 -1 -3 -12l-89 -13q-25 0 -38 11l-155 -62q-21 0 -68 -22t-55 -24q-7 -11 -29 -51q-17 -58 -36 -129l-1 -39l666 52
l45 -11h96q21 -5 81 -15l126 -18q31 -10 92 -28q29 -29 90 -87v-59l-20 -23l14 -16q-53 -21 -38 -21q-2 -14 -13 -45q-6 -2 -22 -2t-41 2q-5 -6 -5 -16q-26 -10 -32 -17t-7 -6q0 8 -18 15q-5 -1 -17 -1t-62 7q-22 0 -42 -14l15 -13q-31 0 -40 4q1 6 9 15q-6 2 -27 2l6 -17
l-277 -6q-51 -1 -63 -22l-12 10h-45l-207 -35q-18 0 -22 7q-1 -1 -21 -16h-34q-7 -7 -7 -22q0 9 -6 15h-18q-11 -11 -11 -16q-16 -5 -98 -9q-12 -9 -47 -20l-158 -20h-114l-13 36q-83 58 -103 146q-13 52 -13 134q4 11 38 115t71 241q-2 9 -2 13q21 37 25 74q-14 67 -15 67
t-1 -1v80q10 12 32 60t46 47q3 0 6 -1l51 154v25l-9 11h-31q-100 110 -119 211l35 134q56 39 59 43l24 -7q58 0 164 36q27 26 84 72q51 -28 72 -28zM977 1373v-6q-3 6 -4 12q4 -3 4 -6zM1461 1546h1h-1zM960 1352q7 -4 4 -7q-2 5 -4 7zM960 1352q-2 2 -3 2q2 -1 3 -2z" />
    <glyph glyph-name="F" unicode="F" horiz-adv-x="1552" 
d="M1206 901q-11 -3 -25 -5q0 -3 7 -13q18 8 18 18zM1692 1456q-25 10 -28 10t-24 -10q-6 6 -31 6q2 -2 2 -16h-26q-23 0 -37 16q-17 -10 -31 -10l-186 -6q0 12 -5 16q-44 0 -44 -26q-22 0 -37 16q-3 -4 -24 -16q-31 10 -51 10t-50 -10q0 16 -9 20q-18 -10 -18 -17
q2 -3 7 -5l-27 -9q0 13 -8 21q-10 0 -27 -12q4 -7 15 -7q-21 -4 -41 -4t-37 4q6 -4 11 -4q-32 -13 -82 -13t-95 1q-2 3 -8 3q-21 -20 -41 -20q-58 0 -202 -27q-26 -15 -31 -38q-16 -66 -44 -188v-30q10 -13 26 -20l177 7l430 72q16 0 67 4l52 5l63 -16q36 0 41 3q0 -9 5 -13
h77q5 -8 67 -31q3 -16 15 -53q-10 -9 -35 -31l5 -18q3 1 11 1t15 -7q-2 -4 -13 -15q-5 7 -30 7q-4 -3 -4 -7q13 -13 15 -13q-47 -17 -105 -52q-2 5 -10 14q-10 -2 -33 -22q-35 -5 -107 -31q17 -10 31 -10q-42 -7 -84 -33l-37 4q-26 0 -51 -24h-33l-8 10q-63 -33 -71 -33h-9
v8h-12q-8 -16 -35 -31q-14 0 -108 -18q-33 -19 -56 -19l-43 4l-203 -24q-20 10 -23 10h-24q-12 -17 -34 -137q0 -75 5 -80q0 -8 -16 -22l-4 -256q-2 -2 -2 -114q-8 -9 -10 -25q-20 -22 -60 -56q11 0 25 -33q-33 -8 -37 -14q-5 -6 -11 -6t-10 20t-7 21q-9 0 -15 4
q-6 -17 -22 -61q-4 0 -39 20l-14 -14h-15q-26 0 -43 45q-8 0 -20 -4q-8 20 -27 20h-4q-16 34 -16 63l-21 20l-16 146q2 45 9 132l18 204q45 258 67 446l59 273v35q-4 4 -24 4q-10 18 -10 24v9q-38 105 -38 126t58 122l314 57l544 49l238 10l178 -8q10 -9 49 -20l16 9
q8 -1 37 -7q2 -3 97 -37t130 -80l17 -53l-6 -37l-21 -21v-15q0 -12 17 -23q-50 -19 -60 -19t-21 10zM1339 1166v2l1 -1z" />
    <glyph glyph-name="G" unicode="G" horiz-adv-x="2270" 
d="M1176 1394l-25 9q-9 -12 -10 -18h2q14 6 33 9zM844 790q0 8 8 19l-25 25q11 29 11 94q20 29 20 39t-16 28q25 15 32 39l64 24l4 -7l723 20h13q205 0 440 -178l114 -162q2 -9 2 -29t-2 -52q-22 -25 -22 -46q-7 0 -21 -7q-3 -3 -6 -17q-3 -3 -7 -3t-7 3l-9 -11q2 -4 15 -4
q-33 -74 -144 -139q2 3 -7 24q-5 -6 -19 -22q1 0 10 -18l-72 -68q6 -4 11 -4l-211 -121q-17 7 -25 7t-35 -23h5q8 0 23 3l23 5q-10 -16 -28 -35q-5 6 -25 6l-357 -153q-75 -33 -206 -60q-53 -25 -154 -27q-3 -5 -3 -12q-45 -11 -74 -27q-31 5 -82 16q-4 -7 -32 -20
q-2 4 -7 13q-3 -2 -13 -13h-52q-8 9 -78 31l-281 135q-13 0 -13 -5l-8 12q-14 8 -43 26q-69 88 -115 148t-56 110q-54 100 -54 256q0 420 310 752q286 308 726 430q66 28 217 68l83 6h6q44 0 140 -49t96 -101q0 -10 -2 -20q33 -52 33 -80l-15 -37q1 -3 6 -10l-37 -103
q-20 -27 -40 -27t-24 7q-8 -7 -24 -23l-64 11h-86l-31 5q-9 0 -57 -18t-55 -25q-9 9 -21 18q-13 -7 -13 -22q-42 -3 -99 -36l-287 -123q-10 -10 -20 -32q-49 -13 -125 -99l-11 12q-5 -8 -14 -27q-23 -15 -57 -61t-39 -71h-7q-8 0 -18 -5l-92 -226q-26 -67 -26 -141t20 -113
q34 -66 138 -110t196 -44h67q70 0 193 26t161 28l268 109q149 61 275 137q13 11 35 38q-12 5 -31 26q1 2 1 4t-3 6l-51 -7q-22 3 -71 19q-29 -4 -83 -12q-6 4 -30 19q-10 -13 -21 -13h-76q-6 -4 -1 -13q-19 13 -21 13h-35q-2 -6 -11 -18q-23 0 -107 12l-69 -8
q-21 -23 -43 -23t-36 6l-80 -18q-57 0 -82 27v24q-11 8 -24 27q-9 2 -33 17q0 13 2 20q-10 20 -10 28zM1393 683l5 -3q-3 0 -5 3zM2031 426h-1h1z" />
    <glyph glyph-name="H" unicode="H" horiz-adv-x="1778" 
d="M514 641q-32 -12 -35 -14q23 0 35 14zM1830 1491h3v-47q-5 -12 -47 -93t-41 -97q0 -16 3 -31q-18 -47 -26 -78t-37 -227t-51 -275q2 -18 2 -55q-18 -46 -18 -82v-47q-7 -9 -16 -20q5 -17 5 -33t-9 -33v-72l-31 -227q-7 -8 -11 -31t-22 -23l-31 -75q-4 8 -17 20
q-28 -37 -72 -37l-23 11q-11 -9 -24 -25l-20 21l-21 -7q-11 25 -56 63q-31 70 -47 259l50 404v85l-7 10h-19l-51 -10q-4 0 -15 -12q-3 2 -7 6h-13l4 -8l-98 -23q-22 7 -25 7l-74 -17h-29q-20 -20 -36 -20t-49 10q-12 -6 -12 -23h-154q-10 -4 -10 -14h-72v-3q0 -14 -16 -32
q-2 2 -2 8t4 14q-8 6 -19 15q-26 0 -33 -4l8 -20h-1q-7 0 -36 -17q-13 4 -48 4v-14q-11 2 -23 10q-14 -16 -39 -16q-24 -61 -24 -135v-72l-10 -58q-10 -12 -18 -12t-11 1q-9 -11 -9 -21l-38 -7q-4 -8 -15 -20q-3 7 -18 7q-10 -9 -32 -31q-13 3 -26 3t-26 -3q-8 8 -19 20
q-22 2 -50 37t-35 41q-34 173 -41 181l10 91v134q87 535 183 775q0 46 94 154q8 3 52 17q38 -15 89 -58q10 -30 32 -92q10 -3 22 -10l13 -88q3 -2 3 -12t-27 -49q11 -11 11 -31l-89 -386q14 -11 32 -11h25l469 20l109 13h102l162 32q18 18 23 45q102 517 354 592l92 -61
q8 -6 8 -14v-13l-6 -34q12 -11 20 -27t18 -17zM29 521z" />
    <glyph glyph-name="I" unicode="I" horiz-adv-x="547" 
d="M417 682v-84l-16 -137v-82l-4 -293q0 -5 15 -23q-6 0 -23 -16h-14l-17 6q-36 -26 -36 -46q0 -3 1 -5q-39 -16 -69 -16t-51 16t-93 68l-27 170l72 1199q8 45 13 83t10 67q4 9 40 93t80 93q13 -3 36 -14q62 -66 65 -71q35 -39 49 -86l11 -150l-37 -594l6 -145
q-11 -17 -11 -33z" />
    <glyph glyph-name="J" unicode="J" horiz-adv-x="1468" 
d="M1057 1319q-8 41 -8 55t-12 57l-11 194q6 28 6 61q0 117 119 177h58q18 -41 77 -102q0 -9 13 -42q17 -18 39 -141t22 -151v-93l21 -200l-23 -401l-65 -426q-23 -26 -42 -78q-20 -23 -57 -61q-70 -58 -134 -94q-4 -10 -30 -26t-152 -41t-150 -25h-27l-273 20q0 2 -180 63
l-17 18q-32 7 -145 75q-25 22 -49 35q-2 38 -26 114l9 13v34q28 17 43 85q43 34 55 34h23q11 -3 31 -25h20q17 0 60 -20l73 -35q184 -57 296 -57l114 4q43 2 97 25q62 9 118 66t56 114q5 6 12 24q4 37 15 100t14 84v68l20 189l1 134l-11 76v99z" />
    <glyph glyph-name="K" unicode="K" horiz-adv-x="1765" 
d="M1681 1642q-96 -111 -96 -113t4 -4l-536 -590h-3q-37 0 -104 -122q-9 -12 -29 -15q-15 -12 -26 -36q-28 -23 -41 -49q11 -10 36 -30q151 -37 350 -92q265 -40 428 -149q9 -12 42 -72q-5 -10 -5 -22v-17q-4 1 -10 1t-16 -5q7 -21 26 -61q-113 -48 -122 -48q-8 0 -24 4
q-8 -16 -57 -16l-277 26q-24 8 -148 31q-287 53 -461 139q-27 16 -107 61q-5 2 -86 88l-20 -9v-524q-11 0 -33 -17q-12 11 -21 11q-16 -18 -16 -26v-10q-68 -24 -54 -24q-15 -12 -20 -27l-31 7q-4 5 -11 13q-66 24 -107 67q-32 51 -40 118l-11 107l4 215l70 973q8 53 31 206
q4 5 21 54q81 98 111 98l53 -5q9 -19 46 -44q28 -54 69 -169l-34 -846q7 1 17 8q20 37 68 105q43 48 100 115t121 129t194 186q48 64 146 186q72 60 126 122t128 143l114 92q88 72 126 72q38 1 70 -59t32 -75t-2 -19q7 -13 24 -43q-9 -22 -9 -39z" />
    <glyph glyph-name="L" unicode="L" horiz-adv-x="1938" 
d="M78 12v6q-43 29 -42 83q-9 20 -9 69l66 526v61l47 380v64q11 81 8 90q12 161 55 446q29 35 87 98q47 14 47 16q25 1 53 -23t37 -28q4 -14 18 -33q17 -48 17 -66q20 -22 37 -30l-31 -376v-94l-78 -836l49 -5q33 8 92 10l997 146l222 -2q47 -5 130 -38q-3 -3 -8 -15
q6 -9 14 -9h10q2 -4 11 -38q-11 -10 -25 -31l14 -15v-34q-14 0 -21 -14q-33 -19 -91 -52q-46 -8 -116 -26t-77 -20h-65l-422 -77q-4 5 -17 5l-414 -90q0 -4 4 -9h7q17 1 30 -9h-95l-33 -15q0 2 -5 7q-4 0 -8 -7l-338 -62l-69 13q-39 11 -52 34h-36zM1880 476l1 1q1 0 1 -2
q-1 1 -2 1z" />
    <glyph glyph-name="M" unicode="M" horiz-adv-x="2097" 
d="M206 -91q-11 0 -30 -3q-37 -27 -88 -43l-125 51q-21 74 -21 118t36 75q36 55 73 139q23 35 41 86l80 129q39 81 86 169l146 272q68 130 89 194q110 238 137 405q15 29 66 86q10 9 43 9q14 13 34 13q49 -1 89 -51t45 -94q4 -15 25 -25l-4 -661l14 -117q5 0 8 -4
q112 123 251 339t221 340t281 390q18 29 25 54l20 6q25 25 72 61q35 -5 94 -18q22 -21 62 -66q2 -8 22 -55t21 -49v-73q1 0 5 -58l9 -170q4 -11 9 -47q-3 -9 -3 -21t3 -30q-3 -36 -5 -105q-4 0 -7 -12v-61l20 -22l-62 -595v-174l-21 -141q-63 -43 -75 -43t-14 1
q-6 -9 -25 -27q-20 -3 -40 -23q-15 12 -15 16q-56 34 -70 34t-20 -5q-57 85 -57 163v220l50 559v204q0 24 -13 49q-7 -18 -26 -57q-5 -2 -53 -40q-24 -33 -59 -95q-47 -53 -82 -129q-34 -43 -45 -92q-7 -13 -25 -20v-2l-7 -44q-14 -9 -19 -4q-10 -20 -27 -80
q-70 -94 -151 -237q-53 -56 -74 -101q-29 -15 -29 -29t11 -26q-64 -57 -70 -136q-51 -83 -82 -83l-29 6q-4 -6 -56 -46q-27 5 -68 5l-27 18q-28 19 -57 19q-19 20 -52 61q-27 105 -47 365l-14 182l-207 -408l-123 -276q1 -4 6 -10l-52 -131q-7 1 -18 1z" />
    <glyph glyph-name="N" unicode="N" horiz-adv-x="2060" 
d="M2018 1783q0 -25 -9 -39l9 -10q-1 -2 -1 -14t23 -41l-23 -138l-6 11l-9 -11l1 -11q0 -22 -20 -46q13 -13 15 -29l-12 5q-8 -6 -14 -14q-5 -22 -10 -65q12 -7 17 -22q-17 -14 -37 -45l15 -8v-21q-18 -5 -25 -23l10 -4q-9 -24 -25 -63q0 -69 -20 -78l4 -9l-25 -32l10 -62
l-20 -15l-2 -20l6 -11l-25 -22l10 -12q-13 -23 -26 -43l14 -19v-18q-6 -4 -24 -14v-25l26 -4l-16 -16q-7 -13 -7 -29t7 -37q-5 -31 -31 -64q0 -19 -10 -37t-12 -34q-11 -23 -11 -28q8 -20 11 -31q-16 -24 -37 -67l1 -9l13 11v-9q0 -25 -11 -42l-21 2l-5 -65l-20 -14
q3 -13 10 -28q-9 -31 -30 -88l9 -27l-14 -25q6 -15 -9 -109l-22 -5l-24 -51q-17 -30 -39 -36q-7 3 -49 11q-10 -21 -46 -21l5 -14q-14 -2 -50 -2t-102 51q-232 182 -414 551q-5 11 -32 41q-9 34 -32 70t-59 94t-65 170q-11 44 -79 153t-107 152q-33 -49 -51 -141t-41 -216
q-6 -30 -85 -174l1 -6q0 -10 -42 -117q8 -35 9 -40q0 -39 -55 -105l-84 -92h-8q-19 0 -37 -17q-13 6 -24 17h-49l-7 20l-41 15q-9 24 -37 73v58q0 12 33 78t34 81q94 151 179 458l135 477q11 31 88 108q71 6 91 6t80 -38t73 -67q141 -126 256 -363q67 -144 193 -410
t238 -379q70 92 182 477t156 603q0 109 14 151q14 43 15 61q17 23 30 44l22 9q30 37 52 38q3 11 11 21q20 -7 78 -61l18 20q9 -20 26 -35h18z" />
    <glyph glyph-name="O" unicode="O" horiz-adv-x="2247" 
 />
    <glyph glyph-name="P" unicode="P" horiz-adv-x="1806" 
d="M1333 1592q-27 0 -45 4q39 -4 45 -4zM1587 1460q0 79 -90 112q-17 2 -63 6t-54 20l-129 10q-20 2 -58 2t-71 -16l-11 10q-15 -6 -46 -6q-1 -5 -5 -10q-26 10 -53 10t-270 -48q-19 -3 -139 -40q-49 -15 -58 -54q15 -5 17 -27v-24l14 -14v-34l-51 -253q-9 -24 -9 -33t3 -14
q-14 -14 -14 -19v-6l-45 -308h15q0 14 138 88t414 178l107 53q167 55 372 250q31 43 59 87t27 80zM1580 953q0 4 -2 4t-11 -6q1 -2 7 -2t6 4zM155 1194h-1l-11 -16l-31 7q2 -5 2 -28q-11 7 -31 28l-11 -11q-81 58 -94 160q2 30 2 47t-2 21q4 52 80 114q27 22 106 80
q22 6 106 48q11 13 4 13q24 10 36 10t17 -1l143 61q7 -4 13 -4t95 42q-3 -2 -3 -7h31q6 0 6 9q40 0 42 5l65 16q14 0 18 -3l16 13l25 -4q27 13 62 36h23l9 -11q21 12 45 16l163 31q31 0 52 -2l11 11h42q0 -10 9 -19q2 3 25 14t51 11h106q205 0 402 -111q107 -106 107 -275
q0 -18 -1 -37l10 -9v-85q-19 -5 -19 -18q0 -7 5 -16v-11q-41 -130 -121 -217h-20q-2 -7 -15 -20v-31l-122 -75l16 -2q3 0 5 1q-25 -63 -65 -64q2 0 2 18l-8 8l-141 -99l10 -12q-7 -4 -41 -9l-102 -51q-14 -14 -43 -39q-1 4 -6 11h-13q-4 -4 -4 -21q-53 -19 -152 -65
q-57 -20 -177 -66q-11 -8 -31 -22q-25 0 -68 -9q-20 -11 -26 -11t-14 4q-68 -42 -78 -42t-23 6l-195 -71q0 6 -8 14l-32 -1q7 -6 7 -27t-7 -92l20 -192v-98q-9 -3 -27 -15q11 -8 11 -32q-42 0 -67 -25q-42 -6 -99 -37q-78 42 -118 144t-40 213q0 20 2 40l15 258q4 13 11 34
q9 26 21 136q8 22 10 71q22 43 22 72t-1 36l137 449q-24 -10 -68 -45q3 -13 17 -82q-46 -23 -50 -23q-7 -5 -7 -28q-34 -17 -42 -17zM1367 802v-1q-1 -3 -9 -13q7 14 9 14zM578 1765l4 2zM1558 911h-1h1zM1623 975q1 2 1 4q0 -3 -1 -4z" />
    <glyph glyph-name="Q" unicode="Q" horiz-adv-x="2220" 
d="M1696 1508l-15 -1q-9 0 -28 12h-18l-70 11l-107 -6q-19 -2 -26 -11q-11 11 -16 11l-251 -41q-75 -12 -298 -98q-4 -9 -15 -19q-10 0 -31 -2q-45 -36 -53 -36t-8 1q0 -10 -11 -20q-4 6 -10 6q-5 -1 -43 -27t-51 -31q-14 -23 -55 -93t-41 -109v-107l-20 -24
q-12 -44 -12 -59t1 -20q-14 -13 -21 -13h-1q-10 20 -31 57q-23 0 -31 7l-26 99q-4 0 -9 4l5 17q-17 4 -44 16q-41 -39 -87 -176q-3 -43 -18 -78v-86q-1 -69 43 -167t103 -130q15 -8 31 -22q18 -7 126 -35t123 -29h17l136 7q27 3 105 9q64 22 218 58q39 9 145 72
q-60 128 -60 140t6 41t2 48l-5 22q37 45 64 60q41 -24 82 -42q30 -28 137 -138h22l129 102h17q27 34 27 37l81 41q0 12 -6 18q22 13 62 39v1q0 20 54 63q25 39 66 116q6 33 19 88v68l-58 154q-12 16 -40 45l6 33q-17 5 -23 16l-10 -11q-25 28 -88 70t-90 42zM2179 1205
q0 -6 -1 -11q22 -49 22 -139q0 -238 -82 -333q-6 -8 -17 -42q-20 -10 -75 -72q-17 -46 -64 -90t-92 -90q-74 -33 -97 -76l82 -137v-85q-20 -16 -57 -47h-59q-31 12 -33 12q-10 0 -16 -12l-151 114h-13l-338 -164l-25 4l-224 -61h-81l-41 -5q-6 0 -6 -8q0 6 -6 13h-23
q-7 -3 -33 -15q-24 21 -115 30l-28 -5q-50 18 -98 42t-201 102l-112 99q2 6 2 16t-6 29q-15 11 -37 25l-93 256l-30 225q1 77 8 148t42 129q37 121 121 237t210 191q22 20 86 50q6 17 94 49t95 32t14 -5q34 14 96 33q8 3 24 17q301 104 441 111q22 10 29 9t44 -11l25 16
q0 -1 36 -11q11 11 20 11l173 -4q37 -2 80 -15q21 -19 41 -19h27q2 -3 10 -14q31 -11 95 -36q2 5 2 10q18 -5 28 -14q-5 -1 -17 -13q15 -9 42 -34t41 -25t18 4l7 -37q22 -14 65 -54q29 -54 101 -161q50 -119 50 -169z" />
    <glyph glyph-name="R" unicode="R" horiz-adv-x="1963" 
d="M1162 1480v32q-31 17 -80 17l-58 -5q-56 -5 -75 -5q-78 -23 -203 -54q-112 -49 -265 -97q-97 -51 -97 -106q0 -18 7 -39q-2 -25 -11 -72l-22 -422q250 185 408 315t277 274t119 162zM373 306v-107l33 -146q-9 -27 -9 -42t1 -23l-74 -110q-7 0 -32 10l-11 -15
q-25 11 -90 21q-13 12 -59 39t-46 45q-12 48 -31 144l6 297l43 808q-3 27 -44 72q0 15 5 18v1l-10 28q0 22 64 152q267 219 447 236q8 10 60 34t57 30q55 18 156 52q88 9 142 16l99 13q20 0 153 -22q4 -3 44 -23q44 -31 83 -87q49 -36 109 -132l27 -130q-22 -82 -22 -102
q-20 -44 -40 -67q-13 -32 -33 -89q-46 -61 -84 -101q-28 -54 -110 -136t-90 -94q-55 -39 -96 -74q-30 -45 -93 -76q-66 -38 -221 -153q0 -15 4 -16l2 1q5 -5 24 -23q186 -55 480 -116q293 -61 357 -75t86 -35l130 -46q105 -69 105 -88l29 -26q0 -4 -24 -31q11 -6 24 -15v-22
l-11 -13q7 -21 7 -24l-45 -36q-70 -14 -90 -17q-76 10 -134 4q-20 -9 -44 -9l-670 114l-296 102l-250 116q-18 -11 -18 -32zM1780 11h5h-5z" />
    <glyph glyph-name="S" unicode="S" horiz-adv-x="1609" 
d="M1102 1767q9 0 99 -33q30 -24 103 -73v-35l25 -41q8 -16 8 -29t-2 -21l-6 -40l-33 -31h-113q-13 0 -51 13q-83 8 -121 8t-315 -47q-43 -7 -131 -53q0 -11 16 -23q232 -101 316 -125q63 -25 186 -80q105 -25 186 -86q59 -19 129 -79t87 -124q27 -22 43 -92t16 -107
t-36 -131q-17 -29 -59 -88q-26 -26 -69 -77q-24 -4 -67 -33t-119 -80q-60 -23 -174 -76q-170 -52 -170 -54q-14 0 -25 7q-29 -15 -34 -16l-13 6q-27 0 -83 -31q0 -11 6 -11l-345 -76l-204 20q-17 16 -57 47q0 12 11 23l-27 24q0 16 5 20q-8 15 -26 37q10 10 14 64t38 76
q45 9 136 34q18 2 96 14q14 11 47 29l50 -4q13 17 58 29t279 90t282 109q39 15 138 92q-4 9 -35 33q-41 24 -358 178q-49 16 -229 94t-237 123q-97 35 -206 161q0 11 9 20q-31 81 -34 81h-1q0 86 20 125q40 76 171 119q56 17 220 67q236 33 236 36q13 0 16 -3q49 25 102 25
h133l23 -5h76z" />
    <glyph glyph-name="T" unicode="T" horiz-adv-x="1282" 
d="M2074 1411l-19 10q-5 0 -22 -14l-66 -6q-40 0 -58 -7q0 7 -11 17q-4 -6 -24 -6l-109 -31q-11 0 -38 -2l-26 -2q-7 0 -18 10l-8 -10l-75 -10l-81 10l-127 -16q-14 -15 -14 -21q-14 6 -18 17q-14 -5 -26 -5t-19 5q-15 -8 -15 -21h-61q-4 -5 -4 -10l-144 -31
q-36 -96 -95 -403q3 -15 3 -28t-1 -23q-80 -478 -86 -713q-6 -9 -26 -9q-9 -26 -9 -44q-35 -22 -52 -40q-19 6 -96 19q-15 37 -17 39t-19 2q-18 29 -47 84l6 267l95 575q24 94 49 200v39q-5 7 -16 20q-49 -14 -49 -16l-20 11l-90 -27l-38 6l-133 -26q-23 5 -24 5l-178 -41
l-178 -17l-99 2q-36 26 -74 40q-5 6 -4 23q-9 8 -22 14v5q0 19 -20 46v28l43 151q23 11 68 38q142 26 549 85l1590 200h334q1 -10 30 -49t29 -43t-2 -7q8 -4 21 -11q-9 -16 -11 -64t-6 -59q11 -15 11 -33l-22 -6q-7 -31 -46 -80q5 -16 6 -16q-8 -9 -29 -21l-141 12l-196 -12
h-5zM824 27q1 2 5 0h-5z" />
    <glyph glyph-name="U" unicode="U" horiz-adv-x="2113" 
d="M1813 1589q0 76 100 183l30 -5q11 13 29 21q18 -38 33 -54h32l40 -72q12 -60 12 -71v-105q0 5 -3 5t-40 -189q-189 -493 -395 -672q0 -14 -15 -32q-101 -89 -299 -275q-152 -112 -342 -218q-15 -9 -32 -29q-24 -8 -44 -37q-18 -2 -128 -39l-116 -12q-69 -8 -69 -10
q-50 4 -184 63v6q-162 108 -258 260l-54 132q-29 72 -29 94v25l-42 263v127q0 55 57 345q68 200 76 217q60 124 173 186q11 -2 40 -15q4 -4 47 -32l54 -138q-16 -30 -34 -92q-82 -99 -114 -200q-13 -42 -33 -179l6 -235q49 -342 198 -388q64 -21 64 -24l81 -10q18 3 83 16
q441 89 869 602q62 76 170 267q2 2 42 123q7 36 7 73l-7 70q0 8 5 21q-10 20 -10 34z" />
    <glyph glyph-name="V" unicode="V" horiz-adv-x="1750" 
d="M160 1611q20 0 84 -77q55 -88 90 -215l72 -259l233 -663q58 63 147 208t145 237t141 231q6 16 8 27q88 120 338 625q26 36 95 126q10 0 24 23q5 -2 13 -2t24 8q0 -10 6 -33q23 -14 55 -14l-4 -53q6 -4 26 -15q2 -14 2 -36t-2 -51q-13 -34 -28 -109q-16 -32 -51 -99
q-49 -61 -65 -126q-5 -7 -74 -103q-69 -135 -129 -221l-169 -350l-155 -251q-5 -13 -9 -36q-79 -138 -195 -344q-13 -25 -29 -35l4 -17q-15 -16 -32 -16q-16 -32 -24 -45l-74 -7l-6 5l-83 27q-121 148 -196 367q-31 93 -111 347q-3 10 -7 46q-5 8 -13 20q-1 13 -45 159
t-115 508l41 177q29 8 51 36h17z" />
    <glyph glyph-name="W" unicode="W" horiz-adv-x="2963" 
d="M2860 1872q0 -11 20 -22q28 -54 42 -116v-77q-14 -30 -29 -63q0 -16 -32 -83t-33 -76q-27 -42 -53 -83l-100 -159q-11 -16 -105 -123q-11 -16 -13 -30q-13 -6 -34 -31q-21 -50 -89 -138t-80 -107q-10 -19 -10 -23t5 -8q-7 -6 -46 -37q-8 -16 -24 -46q-22 -57 -104 -159
q-62 -109 -98 -201q-7 -7 -17 -7l-93 -171q0 -4 13 -15q-24 -19 -34 -19t-15 1q-13 -41 -15 -41v1h-26q-6 -9 -20 -21l-98 47l-11 -10q-124 146 -219 472q-41 144 -56 265l-92 350q-2 0 -5 4l-239 -435q0 -9 3 -13q-8 -25 -45 -64q-43 -86 -105 -225q-75 -105 -102 -164
q-126 -118 -126 -218q0 -13 5 -24l-104 -84h-26q-18 0 -85 41q-8 0 -14 -4q-6 13 -46 38q-3 3 -9 30q-53 99 -90 235l-66 237q-22 249 -250 1000q-2 3 -26 58t-23 73l6 48q6 49 6 63l35 98l70 38q24 -15 96 -101q19 -37 57 -107q93 -232 175 -550l169 -658l15 -14
q209 209 329 454q227 476 285 625l35 64q25 26 68 81l62 20q32 -26 88 -77l87 -195q49 -110 49 -176q7 -20 97 -403q9 -39 77 -256q2 -9 28 -45q10 2 21 18l332 475q26 37 107 152q78 84 200 261q29 31 143 257q20 25 45 76q25 27 54 51q10 24 28 53q52 0 56 -2q-1 -2 -1 -5
z" />
    <glyph glyph-name="X" unicode="X" horiz-adv-x="1706" 
d="M1587 1315h-10q-4 -4 -4 -15l-184 -67q-17 -14 -22 -27l-214 -126q-6 -4 -6 -22l-123 -92q63 -98 144 -188l188 -213q33 -95 33 -115q-4 -15 -23 -94q-91 -119 -135 -119q-6 0 -30 9q-4 -1 -9 -1q-40 -1 -88 51t-140 148q-2 10 -18 42q-90 110 -180 208h-20
q-12 0 -76 -86l-115 -153q-27 -63 -82 -154q-3 -5 -63 -191q-37 -114 -105 -149h-63q-13 31 -33 31q-5 0 -8 -1q0 36 -31 51l-16 105v72q1 8 15 59t17 69q22 67 66 150t281 447v13l-494 435q2 4 10 13q-8 16 -10 72l90 176l73 23q6 -2 42 -5q88 -43 274 -209l279 -250
q203 142 379 254t188 127q129 60 166 60q119 0 131 -39l-17 -12v-19q13 -12 27 -18q0 -21 -16 -44l26 -20l-16 -85q-18 -13 -25 -44q-14 -8 -40 -20q0 -15 4 -26q-9 -11 -17 -11zM201 1677l1 -1l2 1h-3z" />
    <glyph glyph-name="Y" unicode="Y" horiz-adv-x="1511" 
d="M1520 1665q0 -3 -4 -12t-15 -50l-258 -460h-5q-4 0 -17 -11q0 -3 5 -10q0 -17 -22 -61t-125 -204q-20 -45 -131 -249t-129 -285q-78 -176 -78 -352q0 -37 4 -72q-17 -28 -43 -85h-3q-13 0 -23 -23q-18 -3 -48 -13q-49 18 -93 33q-19 29 -33 31q-10 28 -32 70q0 22 -10 62
q2 2 2 20t-2 48q10 113 44 298q7 12 25 28q19 16 23 46q4 28 8 37t3 14q0 5 -6 16q12 30 41 83q-19 24 -36 24t-27 -4l-19 18l-13 -8q-22 3 -61 29q-36 59 -120 185q-150 324 -266 674q-21 92 -21 122t1 36l8 102q28 16 48 51h38q28 -26 82 -79q18 -26 40 -79
q29 -45 54 -122l44 -136q56 -119 143 -321q24 -51 53 -84h16q55 64 157 148q48 78 94 115q8 12 32 50l27 44q48 59 142 164v13l127 125q0 13 5 29q59 69 204 215q20 4 64 11q9 -5 9 -24q8 -5 21 -14q10 -48 47 -50q13 -61 33 -116l-8 -10q4 -4 4 -7z" />
    <glyph glyph-name="Z" unicode="Z" horiz-adv-x="2441" 
d="M1692 6h-212l-24 5l-58 -5q-51 0 -118 -5l-7 10l-479 -17l-361 -34q-8 -6 -18 -18l-170 -28l-72 23h-46q-9 8 -33 28q3 12 3 26q-51 59 -51 73v73q11 15 15 47l5 38q71 89 248 254l607 566q54 53 210 202q32 24 93 89l172 188l-8 6l-215 -10h-7q-6 0 -35 10l-79 -19
l-446 -31q-4 -1 -20 -1t-34 12q-26 3 -51 18q-15 22 -32 44t-17 27l6 65q0 15 -3 30l31 95q15 23 53 46q54 14 126 20l581 46h237q102 -11 243 -39q22 -20 66 -58l44 -113v-117q-86 -110 -142 -180t-236 -263q-22 -13 -106 -101t-125 -113q-53 -55 -158 -159q-7 -1 -16 -7
q-132 -164 -265 -259q-20 -27 -46 -60q-18 -14 -59 -55l8 -8h13l310 19l964 -11l119 11l71 -10q5 2 31 14l122 -14l54 -29q13 -33 49 -92q-3 -3 -3 -11t5 -22l-12 -39q0 -9 7 -16l-21 -20v-11q8 -2 18 -10l-28 -53q-15 -4 -46 -18l3 -9v-14q-13 -7 -26 -10t-13 -8l-598 22
q-9 -10 -18 -10z" />
    <glyph glyph-name="bracketleft" unicode="[" horiz-adv-x="686" 
d="M811 -308q0 -56 -45 -96q-13 -12 -105 -70q-39 -12 -209 -58t-216 -46q-48 0 -116 50t-87 58q0 5 4 12l-26 72q11 23 30 88q-2 15 -2 46q2 9 14 56l-4 279l9 299l36 903q45 342 115 469q24 15 65 46l432 77q25 -5 67 -20q3 -19 29 -57t26 -60t-1 -29q9 -10 9 -14v-29
q-15 -13 -19 -20q-22 -68 -131 -81q-42 -18 -114 -29t-99 -30q-8 -44 -27 -127l-24 -547v-432l-10 -123v-214l14 -246h244q84 -16 112 -43q28 -28 29 -84z" />
    <glyph glyph-name="backslash" unicode="\" horiz-adv-x="1203" 
d="M1248 -655q-12 0 -27 16q-7 -11 -20 -16q-5 -4 -5 -19q-15 -8 -67 -63h-21q-35 15 -53 15l-118 136v26q-86 123 -208 354q-110 190 -129 255q-37 52 -62 109q-2 10 -20 61q-30 56 -96 170q1 4 6 10q-14 23 -46 104t-73 120q0 11 11 22q-19 36 -27 60q-39 33 -39 53t1 35
q-36 81 -67 128q0 11 -18 76q-32 36 -32 54q0 17 7 29q-10 13 -28 36q0 18 -50 108t-51 100q-12 12 -46 90t-71 143q0 7 -10 45l-10 38v132q-1 20 23 59t40 44l62 7q39 0 72 -25l63 -46q2 -27 83 -144l333 -760q0 -4 -4 -12q7 -21 39 -80q16 -47 49 -129q39 -74 112 -225
q13 -15 40 -44l6 -48l191 -351q97 -177 205 -314q45 -68 82 -103q20 -33 57 -99q2 -38 17 -77q-2 -15 -10 -44q-79 -36 -91 -36z" />
    <glyph glyph-name="bracketright" unicode="]" horiz-adv-x="1024" 
d="M516 1841q16 0 22 1l175 15l106 -15l51 -51h28q71 -109 71 -166q0 -14 -4 -23l24 -147l-14 -307l-143 -1370q0 -8 11 -19l-11 -217q-2 -21 -81 -102q-54 -28 -77 -28l-463 -16h-10q-90 0 -199 48q-129 56 -130 146q0 34 38 61q27 9 81 25q181 28 220 28l211 24l45 357v73
l21 209l109 847v269l-22 15h-147l-123 16h-65l-88 5q-44 2 -181 26q-114 80 -114 178l26 86q25 35 115 74l352 -47q20 10 38 10l54 -4q26 0 37 10q21 -11 37 -11z" />
    <glyph glyph-name="asciicircum" unicode="^" horiz-adv-x="1212" 
d="M1168 1418q0 -8 -40 -31v-43l-41 12h-9q-9 -15 -31 -25q-21 3 -49 3q-7 0 -205 114q-22 12 -187 148h-13l-202 -277q-4 3 -10 7q-6 -7 -12 -23q12 -8 13 -12q-3 1 -13 1t-40 -25l-36 -10q0 -17 2 -21h-15q-8 -8 -9 -12h-19q-22 -16 -40 -18q-46 15 -131 113l371 534
q21 13 59 13q121 0 275 -117q68 -52 244 -187q36 -6 104 -65q8 -11 8 -27t-8 -34l31 -15q3 -1 3 -3zM296 1235q1 0 3 1h-4q0 -1 1 -1z" />
    <glyph glyph-name="underscore" unicode="_" horiz-adv-x="2257" 
d="M452 -417h-5q5 2 13 7q-4 -7 -8 -7zM338 -410q0 -4 7 -7q-11 -7 -29 -7q-7 7 -17 20h-106q-25 20 -74 59q-7 25 -28 49q-23 62 -23 100t15 77q18 16 52 47l174 4l679 -15l744 32q7 0 54 16l20 -10l211 25q58 -35 119 -61q6 -7 38 -66t54 -95v-18q-6 -4 -35 -45
q-34 -27 -110 -33l-359 -27l-1130 -24q-175 -4 -215 -25l-29 10h-10q-2 -2 -2 -6z" />
    <glyph glyph-name="grave" unicode="`" horiz-adv-x="928" 
d="M881 1375q0 -9 -14 -18q1 -10 8 -19q-6 -6 -18 -17l3 -30q-65 -17 -65 -24q3 -3 4 -10l-23 -2q-21 6 -132 38l-422 245q-57 33 -103 72t-66 45q-26 53 -27 69l5 18q-4 6 -4 12v8q0 16 10 38q23 41 79 41t94 -37q14 -4 39 -11l256 -176q137 -93 283 -129q8 -17 34 -31
q33 -50 33 -64v-1l26 -16v-1z" />
    <glyph glyph-name="a" unicode="a" 
d="M724 514q-29 0 -126 -39l-112 -45q-64 -37 -137 -107l-4 -12l59 -6q206 53 325 172q6 6 46 37h-51zM900 736q0 -4 -2 -9q13 -10 50 -84q9 2 20 2q43 0 85 -37q66 -108 127 -210t88 -189q-27 -33 -74 -90l-35 6q-4 -11 -16 -26q-14 6 -41 24q-2 -1 -5 -1q-29 0 -111 66
q-18 39 -90 137l-264 -198l10 -17q-9 -15 -87 -55q-219 -67 -219 -69q-154 0 -246 121q-44 117 -44 161t81 225q70 76 102 78q11 11 148 105q64 26 206 88q143 34 143 37l101 -7q9 0 13 1q60 -27 60 -59z" />
    <glyph glyph-name="b" unicode="b" horiz-adv-x="1552" 
d="M833 751h-1l-203 -9q-50 -3 -189 -52v-33l10 -30v-109l39 -268q4 4 11 4q2 8 11 20q81 47 259 114t223 101q37 7 186 132v16q-22 28 -68 57q-108 43 -251 50q-22 7 -27 7zM1513 619v2v-2zM151 530l-2 45q0 17 5 35q-11 19 -66 42q-37 44 -37 90t29 94t63 69l7 511
q3 51 14 213q6 91 49 159q6 6 24 23q39 18 50 18l40 -10q13 -27 50 -78q14 -38 31 -99q-1 -4 -1 -16t3 -40t7 -73l20 -487q2 -6 11 -10q7 3 72 8l209 18l203 -4q11 0 82 -6q84 -16 143 -31q13 -6 41 -22q84 -19 168 -101t107 -153q35 -107 37 -107t3 1q-3 -22 -69 -154
q-30 -19 -41 -55q-120 -110 -292 -195q-30 -15 -292 -129q-36 -5 -112 -28t-78 -23l-43 4q-30 31 -48 31h-24q-5 13 -25 37q-14 -26 -34 -62q-16 -7 -28 -7t-17 1l-21 -21h-16q-6 0 -57 27q-27 -6 -31 -6q-52 44 -52 73q-24 31 -31 89q-16 27 -20 51q-16 108 -22 113v102
q-9 51 -9 63z" />
    <glyph glyph-name="c" unicode="c" horiz-adv-x="1239" 
d="M1185 280q0 -20 -2 -43q-20 -33 -79 -64t-68 -41q0 -47 -223 -90q-55 -31 -87 -31t-43 3q-21 -18 -55 -22t-79 -8l-117 16l-31 -6l-72 20q-21 -3 -33 -3t-62 21t-64 26q-109 118 -109 220q-1 47 31 138t53 108q161 167 512 323q21 10 82 38q7 1 97 29t141 28l51 -4
q14 0 27 4l47 -135q-17 -34 -45 -63l3 -15q-9 -5 -287 -131q-7 -5 -42 -40q-83 -26 -177 -64t-137 -127q2 -4 2 -11q60 -38 169 -38l463 50l123 -30l9 -22q2 -16 2 -36z" />
    <glyph glyph-name="d" unicode="d" horiz-adv-x="1493" 
d="M1378 364q20 0 31 3l16 -20l-14 -24q12 -9 45 -20q0 -4 -30 -26t-30 -40t9 -36q-9 -15 -64 -42t-68 -42q-61 -27 -184 -82l-32 -4q-31 -4 -43 -4l-98 -21q-66 0 -106 -5l-40 -5l-98 6h-4q-3 0 -13 -8q-21 -3 -77 -6l-58 -2h-4q-57 0 -248 49q-44 12 -118 51
q-43 35 -60 76q-39 35 -39 82t32 162q16 22 52 61q227 162 647 246q17 3 209 35q23 4 35 16l29 850q2 4 9 46t27 123q71 107 152 109q107 -51 107 -196v-28q2 -9 4 -28q6 -4 14 -23l-8 -1029l-34 -129q-2 -1 -15 -1t-41 1q-29 -37 -69 -37l-85 17l-325 -38q-16 0 -25 11
l-224 -76q-2 -2 -4 -7l269 -11l192 7l325 45q34 -6 54 -6z" />
    <glyph glyph-name="e" unicode="e" horiz-adv-x="1201" 
d="M689 672q-2 3 -7 16q-78 -31 -104 -45q-74 -39 -100 -83q7 0 15 -7q139 53 196 119zM65 406q0 98 89 244t202 192q6 3 33 3q48 41 162 69t186 28t159 -49q-2 -4 -2 -24q19 -4 45 -11q0 -6 13 -20q0 -37 28 -96v-44q0 -8 -12 -20q7 -10 7 -27t-19 -45q-2 -14 -4 -40
q-23 -31 -58 -93l-217 -157q32 -19 176 -23l254 -6q17 -29 60 -63q-13 -18 -35 -60q-14 0 -21 6q-11 -4 -34 -18q22 -9 57 -29q-13 -4 -55 -42q-42 -15 -127 -34q-26 -16 -36 -45l-255 -32q-274 18 -437 124q-118 121 -148 277q-11 22 -11 35z" />
    <glyph glyph-name="f" unicode="f" horiz-adv-x="1260" 
d="M1637 1336q0 -8 1 -12q-6 -11 -50 -20t-51 -13h-16q-46 46 -59 46h-2q-4 30 -56 71t-87 41q-55 42 -181 83t-198 41q0 -2 -113 -23q-37 -19 -74 -58q-6 -7 -40 -72q-59 -233 -59 -509q0 -15 2 -43l14 -182q13 -12 27 -12h1l375 14q16 -2 43 -10q6 -8 20 -24h3
q24 0 59 -40q-2 -4 -15 -16v-15q11 -10 20 -10q-8 -10 -8 -18t3 -15q-24 -13 -41 -40q-37 -9 -102 -56q-71 -19 -208 -51q-7 -2 -28 -20q28 -39 70 -118q25 -120 27 -120t2 2v-16l-69 -40v-18h-56q-11 -8 -11 -26q-38 10 -53 10l-21 -5q-52 57 -153 136q-35 48 -98 142h-29
l-81 -21h-91q-68 0 -92 24q-92 4 -92 107q0 56 92 174q54 17 68 17t22 -5q26 12 47 12t33 -1l8 7v67l-20 87v133q0 115 28 301t76 292q123 274 293 301q25 9 110 27t109 18t100 -27l24 6q0 -2 51 -15q11 9 19 9q46 0 306 -119q141 -106 223 -206q-2 -5 -2 -11l16 -86v-22
q-6 -9 -21 -27t-15 -26z" />
    <glyph glyph-name="g" unicode="g" horiz-adv-x="1268" 
d="M546 524q0 -2 -159 -57l-33 -30q0 -5 6 -13q110 -27 170 -27q60 1 175 41t137 97l-100 7l-197 -15q1 -1 1 -3zM-181 -402q-6 0 -8 3q15 0 16 3q-2 -6 -8 -6zM1113 414q0 -6 -2 -8q13 -96 48 -369l28 -209l-7 -199q-26 -209 -128 -354q-13 -18 -78 -89q-19 -8 -72 -55
q-55 -31 -103 -45q-30 -17 -92 -54q-34 -12 -103 -40l-325 -54l-159 -5q-6 2 -46 8t-124 33q-78 18 -98 31t-113 79q-13 25 -51 56q-63 141 -63 151v144l69 104q30 22 100 68q10 -11 10 -23t-10 -27q4 -1 12 -1q5 3 5 18q16 7 54 16l-3 -34l-17 -15q4 -9 15 -39q26 7 32 7
q-10 -23 -37 -64v-20q8 -9 8 -29t5 -68q2 -6 20 -34q64 -50 91 -62t130 -16l90 -4l69 13l23 -3q34 0 118 15q49 24 157 61t189 109q160 103 160 375l-63 392l-7 8h-22l-276 -88q-23 7 -53 7h-41q-99 1 -245 93t-147 191l11 41q-4 13 -4 26q0 72 68 160t118 99q86 47 201 67
q7 1 184 29l134 6q61 -15 128 -34t119 -60v-25q47 -20 60 -88q7 -14 24 -39q-13 0 -17 -4q0 -27 2 -35q-6 3 -18 3l-9 -9q51 -102 51 -108zM1089 528q1 -2 2 -3v2q-1 1 -2 1z" />
    <glyph glyph-name="h" unicode="h" horiz-adv-x="1432" 
d="M72 404v202q0 27 6 21l21 411q1 34 8 66q-4 18 -4 38t9 34q-4 14 -4 66t42 441q12 29 52 54h22q38 0 99 -68q29 -32 50 -62q26 -130 26 -153v-27l-24 -282v-76l-10 -92v-303l8 -9q44 31 131 88q12 11 139 112q45 17 106 49q142 74 267 74l29 -10q29 -10 35 -10
q118 -15 256 -241q50 -115 50 -216q0 -18 -1 -32l-30 -405q15 -62 15 -134q-5 -49 -6 -52q-27 -2 -38 -31l-46 -17l-82 50q-78 91 -77 129v3q-30 39 -30 137q0 22 1 47l20 329q1 9 1 17q0 109 -99 109q-13 0 -37 -9q-228 -15 -573 -406q-31 -29 -134 -74q-6 -6 -22 -18
l-15 14q-11 0 -31 -4q-3 10 -11 37q-25 -6 -46 -17q-13 15 -31 29q-42 154 -42 191z" />
    <glyph glyph-name="i" unicode="i" horiz-adv-x="493" 
d="M385 199v-103l-31 -74l-22 5q-9 -7 -21 -15q-8 3 -20 10q-10 -3 -21 -10q-8 6 -84 25q-36 59 -63 203q-5 25 -5 51t1 41l6 179l25 119q28 25 36 52l54 12q12 0 33 -14q30 -35 90 -100q33 -58 33 -103l-1 -122q-10 0 -10 -156zM372 1006q-16 0 -20 -5q-43 23 -98 31
q-37 86 -37 96v11l10 112q10 4 33 27h63q31 -18 68 -72q27 -8 41 -48t21 -52q-5 -9 -16 -21q10 -25 10 -47q-10 -16 -54 -37q-5 5 -21 5z" />
    <glyph glyph-name="j" unicode="j" horiz-adv-x="860" 
d="M477 -1080q-14 0 -158 30q-52 24 -92 31q-95 53 -191 116q-15 29 -60 68q-18 37 -57 93q-28 69 -74 200l8 56q8 -5 21 -16q17 16 20 16q12 -13 12 -18q42 -34 117 -101l152 -70q93 -42 129 -42t55 9q55 134 67 240t24 287l4 278l-37 368v189q-1 -4 3 -4t24 63q8 11 58 47
q31 -11 53 -11q16 -39 72 -124t65 -144q3 -44 7 -132l5 -81l27 -231l-15 -548q0 -26 -32 -204t-97 -314q-51 -51 -110 -51zM421 983q0 -26 -54 -53h-33q-33 0 -86 31l6 22q-12 12 -27 18v149q6 7 23 20h14l36 -10q36 -10 45 -10q5 -32 46 -42q3 -26 30 -63v-62z" />
    <glyph glyph-name="k" unicode="k" horiz-adv-x="1414" 
d="M340 178q0 -56 2 -56q-4 -33 -15 -91q-28 -43 -90 -43q-10 0 -13 6q-5 -5 -5 -10h-22q-19 20 -58 51h-12q-6 -8 -17 -21q-38 51 -38 56v65l-11 51v103l143 1184q20 91 20 117q0 25 -2 39q19 122 26 151q22 79 61 103h3q40 1 94 -55t73 -107q19 -76 19 -92l-31 -398
l-21 -127v-57l-27 -256l9 -13q197 98 558 291q80 25 126 52t54 27t10 -1l153 88q26 -3 49 -25l46 -45q5 -10 5 -41q10 -13 27 -18l14 -95q-14 -23 -36 -73l-804 -420q15 -7 44 -20q123 -20 123 -23l10 6q185 -52 422 -114q8 -7 125 -93q0 -12 -10 -22q20 -23 30 -51l-16 -15
l6 -4v-28q-22 -17 -64 -58l-168 -20l-407 56q-201 29 -355 118h-14q-16 -16 -16 -72z" />
    <glyph glyph-name="l" unicode="l" horiz-adv-x="538" 
d="M489 1653v-109l-180 -1585q-33 0 -72 -16q-11 0 -22 10q-26 -4 -37 -4q-4 4 -51 42q-8 0 -24 -18q-7 20 -20 47q-20 136 -20 166l84 723q36 297 82 753q8 34 29 110t53 108l43 -5q29 -27 54 -36q6 -13 49 -67q32 -97 32 -119z" />
    <glyph glyph-name="m" unicode="m" horiz-adv-x="1954" 
d="M1862 105q-9 -9 -23 -9l-20 -35q-35 4 -105 27q-13 22 -52 55q-15 39 -15 90v269l-45 135q-1 -1 -4 -1t-7 5q-18 -9 -59 -20q-116 -21 -250 -169q-7 -12 -184 -261q-23 -46 -51 -96t-29 -50q-8 0 -52 -14q-5 4 -20 4q-12 -11 -37 -24l-27 44q-4 7 -28 21h-14q-2 0 -10 -6
t-13 -5q1 1 1 3t-27 31l-5 159l29 325q0 25 -10 74h-1q-3 0 -7 4q-24 -7 -70 -29q-21 -20 -66 -59q-117 -81 -213 -228q-85 -93 -137 -213q-12 -10 -12 -21l12 -24q0 -4 -125 -4q-45 67 -98 67v3q0 15 -12 53l-5 47q0 17 15 25l-18 15q1 63 30 191t57 251q35 71 38 71
q0 4 -2 7q69 34 69 37q31 0 68 -56q61 -92 65 -92t29 17q112 101 195 162t158 78q19 3 32 22q49 18 65 18q52 0 114 -110q26 -44 69 -134l27 -151q10 10 52 40t69 62q89 100 217 181t224 81q66 0 140 -88t80 -169q11 -59 39 -171l4 -139q-2 -24 -17 -200q-28 -87 -28 -95v-1
z" />
    <glyph glyph-name="n" unicode="n" horiz-adv-x="1172" 
d="M975 -65q-7 0 -23 16h-13l-18 -6q-23 18 -71 59q-12 33 -34 99l-2 106l19 289v75q-4 8 -14 19q-95 -43 -136 -68l-204 -217q-124 -133 -190 -254q-29 -16 -51 -16t-52 12l-10 -16q-7 1 -35 6v26l-29 18q-5 0 -29 -13q-11 20 -23 67q-4 62 -7 78v2l17 128q4 42 14 94
q10 53 25 143t63 215l54 24q14 -2 42 -10q0 -20 23 -41t27 -26q9 -38 27 -62q5 -26 20 -90q171 100 233 186q18 6 57 41q84 49 170 95q49 16 71 16t99 -52q65 -100 110 -309l-6 -165l-30 -330l-41 -116q-12 -5 -37 -23h-16z" />
    <glyph glyph-name="o" unicode="o" horiz-adv-x="1337" 
d="M792 731h-17l-110 -4l-246 -47l-11 -17v-36q0 -11 9 -31q-3 -6 -20 -21q9 -21 11 -24q-19 -15 -31 -20q-1 -1 -29 -51t-28 -58t5 -27q31 -35 101 -65t123 -29q118 22 139 22l162 64q118 47 162 89t45 73v26q-80 131 -148 131l-14 -5h-12q-18 30 -91 30zM500 -27l-41 9
q-14 0 -148 38q-56 33 -156 119q-14 29 -48 87q-33 119 -33 184l9 94v148q25 67 44 149q20 53 154 138q22 7 71 20q13 7 33 18q4 -4 12 -4l58 18q57 19 100 19h193q32 0 54 -8t23 -7q71 0 275 -130v-20q34 -32 90 -65q20 -23 85 -164q13 -72 13 -140t-46 -122q-2 -9 -12 -40
q-37 -46 -108 -130q-111 -72 -208 -133q-228 -78 -347 -78h-67z" />
    <glyph glyph-name="p" unicode="p" horiz-adv-x="1600" 
d="M501 -35q-10 0 -20 -6l-96 41l-29 -202v-62l-31 -307l7 -211l-16 -177q-2 -1 -17 -19t-29 -18t-20 17q0 -1 -19 -20h-3q-15 0 -33 18q-81 35 -103 136q-18 149 -18 157v223l31 402q6 84 110 645q31 77 78 79l41 -6q36 -23 62 -76t29 -58t3 -51l-20 -208q0 -16 9 -43
q121 54 289 117q174 29 376 129q5 4 29 8q42 29 63 36q36 31 110 103q-18 44 -96 90t-86 51l-20 -5l-37 20q-22 -4 -23 -4l-119 29l-242 -5l-81 -13q-174 -20 -287 -81q-28 -4 -119 -52t-91 -93q0 -18 22 -49q-6 -9 -17 -9q-8 -5 -8 -13t1 -11l-23 3l-11 -30q-8 2 -27 10
q-4 0 -14 -10h-28q-7 10 -23 27l-13 -10q-23 34 -47 47q-1 31 -9 52l-7 22v90l18 26q-1 4 -1 8q0 42 45 74t83 60q7 16 21 31q21 -7 27 -7l338 160l211 62q38 -14 81 -14l37 10h106q2 1 11 9q61 -9 99 -20q54 -1 95 -7t84 -29l29 6q154 0 330 -264q64 -161 64 -235l-22 -65
q0 -54 -57 -125q-59 -70 -122 -96q-52 -15 -58 -35l-215 -109l-207 -67l-6 6l-352 -88q-7 6 -17 6z" />
    <glyph glyph-name="q" unicode="q" 
d="M556 305q17 0 22 -12l533 144q65 -54 90 -150q11 -40 34 -135l12 -88q7 -52 9 -52t2 6v-119l12 -145l-6 -377q-16 -86 -18 -180q-14 -60 -49 -180q-77 -23 -60 -23q-25 0 -87 33l-41 146l-1 744l-22 182l-9 13h-29l-268 -81q-2 3 -5 4q-4 -2 -7 -8l-298 -54q-6 -1 -18 -1
q-54 0 -159 48q-140 64 -140 159t57 255q97 144 318 225q91 34 316 54q54 0 112 -12q22 -19 40 -19q13 -19 23 -48q52 -35 52 -54q0 -6 -7 -20l17 -24v-16q-3 -2 -9 -20t-24 -27q-19 -8 -29 -14q9 -9 25 -22h-149q-99 0 -143 -42q-125 -16 -222 -63q-13 -9 -18 -23
q10 -16 43 -16q84 12 101 12z" />
    <glyph glyph-name="r" unicode="r" horiz-adv-x="1442" 
d="M60 414q0 40 34 152t78 112h30l35 -31h15q26 0 185 101q110 47 333 145q8 0 102 41q23 1 93 17l73 15h101q106 0 247 -141q5 -6 7 -24q25 -28 25 -52v-27q-5 0 -27 -11q0 -10 -3 -15l20 -20q-45 -13 -93 -33l-186 40q-49 -3 -132 -18q-96 -33 -180 -55
q-157 -62 -286 -122q-170 -78 -214 -238q0 -6 10 -80v-33q-16 -29 -16 -41t13 -20l-100 -64h-20q-20 12 -54 41l-27 -4q-13 19 -35 52q-10 26 -21 46l-12 64v87l5 23v93z" />
    <glyph glyph-name="s" unicode="s" horiz-adv-x="1024" 
d="M865 654q4 0 4 3t-127 35q-128 17 -154 17l-142 -19q4 -4 4 -12q13 -8 36 -24q489 -195 489 -430q0 -46 -23 -97q-16 -27 -145 -79t-199 -52l-109 13q-24 0 -44 -7l-99 20h-86q-18 0 -80 22t-78 30q-5 22 -29 47q0 11 5 16l-10 10q5 21 5 45t-11 43q69 29 90 29h75
l103 14h68l167 21q14 12 15 12q-4 7 -25 23q-31 13 -117 49q-295 127 -338 287q-6 25 -18 41v108q0 8 18 44q9 107 405 107q0 -1 171 -22q117 -42 156 -65q82 -48 117 -123l-29 -58l4 -12l-54 -36h-15z" />
    <glyph glyph-name="t" unicode="t" horiz-adv-x="1681" 
d="M1485 901q0 -1 144 -23q36 -20 97 -44v-11q0 -8 -7 -16q5 -27 28 -50h5q13 1 21 -8h-34q-8 -15 -8 -21t1 -9q-20 -13 -31 -13q-52 -54 -63 -54h-86l-90 -22q-13 4 -30 4l-128 -24l-31 4q-26 0 -178 -24q-59 -10 -120 -45q-47 -277 -47 -301v-78l-32 -150
q-38 -16 -114 -53q-2 2 -36 25t-42 23q-40 59 -50 143q-3 21 -13 133l20 161v61l-7 9h-22l-235 -48h-8q-6 0 -16 7l-187 -37q-16 12 -48 28t-46 44t-29 57q-10 86 -12 86q0 30 23 64t44 34h3l365 25l239 56q24 180 76 538q46 145 84 242q39 45 81 71q13 -4 116 -71
q19 -113 20 -113l-86 -540v-78h142q4 -1 14 8h29l36 -4l67 14q11 0 31 -10q31 10 150 10z" />
    <glyph glyph-name="u" unicode="u" horiz-adv-x="1147" 
d="M498 -33q-230 0 -397 351q-17 92 -17 138t21 130q63 46 82 46h1q124 -61 128 -182q1 -51 63 -129q69 -33 73 -36h34q14 4 85 26q102 67 140 101q75 68 86 137q13 43 55 173t74 167l31 -4h31q5 -11 26 -29q20 -35 62 -101q3 -12 3 -27l-4 -51q0 -17 8 -30
q-12 -61 -48 -217q-17 -68 -85 -184q-72 -100 -108 -136q-74 -75 -146 -90q-28 -9 -86 -36q-94 -17 -112 -17z" />
    <glyph glyph-name="v" unicode="v" horiz-adv-x="1251" 
d="M657 -18h-65q-57 0 -92 42q-48 23 -271 261q-51 82 -93 127q-47 77 -92 155q-18 103 -18 129t28 60q28 35 58 35q32 0 110 -72q33 -21 69 -64q115 -216 272 -310q117 153 354 456q166 268 347 446q20 -14 62 -21q14 -12 65 -65q20 -23 20 -71q1 -48 -31 -98t-108 -169
q-46 -53 -94 -143q-16 -23 -34 -33q-89 -143 -271 -393q-26 -50 -92 -149q-6 -22 -22 -68q-12 -4 -35 -15q0 -13 8 -13q-67 -27 -75 -27z" />
    <glyph glyph-name="w" unicode="w" horiz-adv-x="1806" 
d="M1239 -53q-98 0 -199 185q-50 74 -100 179t-85 158q2 0 2 1l-15 5q-91 -130 -269 -394q-100 -67 -190 -77q-25 14 -62 47q-18 30 -63 76q-46 89 -86 184q-104 249 -104 367v79q0 34 73 93h21q20 0 80 -55q26 -7 42 -39t23 -37q27 -103 112 -311q36 9 87 88q14 6 36 28
q15 30 91 124t92 138q14 22 14 37q14 4 43 24q23 0 41 7q24 -4 73 -29q144 -96 289 -424q13 -16 50 -56q25 17 47 46l219 299q21 29 148 160q8 -5 12 -5q-8 -26 -8 -28q3 -1 8 -4l40 37q2 -8 38 -45q-5 -4 -5 -19q5 -4 21 -4l4 -40q0 -48 -63 -220q-16 -19 -62 -129
q-52 -95 -156 -243t-176 -203h-63z" />
    <glyph glyph-name="x" unicode="x" horiz-adv-x="1235" 
d="M85 762q-1 18 27 53t48 41h20q39 0 184 -83l145 -85q7 8 250 129q242 121 279 121t51 -10q38 -30 68 -43q26 -27 46 -66q-16 -64 -16 -73l-20 -21v-27q-27 -16 -99 -33q-47 -26 -139 -71q-54 -34 -157 -105q76 -69 92 -85q70 -75 116 -169q5 -16 33 -98q-6 -41 -50 -84
v-13q0 -10 -6 -20l-46 -4q-5 0 -35 15t-40 16q-136 135 -198 193t-120 87q-69 -22 -146 -112t-104 -168q-44 -41 -98 -67q-36 8 -64 46t-34 42l-7 141q8 77 64 159q10 15 110 143l-110 71q-22 61 -44 98v82z" />
    <glyph glyph-name="y" unicode="y" horiz-adv-x="1062" 
d="M1016 496q0 -123 -115 -502q-17 -56 -165 -464q4 -6 13 -6h-14l-93 -222l-105 -329q-8 -5 -56 -56q-7 0 -34 -8l-26 -9q-4 1 -25 7q-31 33 -96 104q-22 83 -28 152l29 146l97 282l188 448q-3 9 -8 21q-108 -33 -154 -33q-164 0 -264 213q-81 171 -81 356q0 47 22 108
q18 21 57 58h14q49 0 96 -76q20 -32 31 -84q50 -237 86 -237q81 -1 213 109t209 208q16 1 40 20q21 -6 54 -6q15 -18 51 -62q9 -2 21 -7q43 -54 43 -131z" />
    <glyph glyph-name="z" unicode="z" horiz-adv-x="1262" 
d="M753 262q11 0 20 -10q37 15 90 16l132 5h7q35 0 81 -13q5 -5 21 -18h25l36 6q9 -17 20 -68l21 4q-1 -2 -1 -8t7 -21q-11 -3 -31 -20q1 -3 4 -21q-15 -7 -34 -13q22 -13 26 -18q-16 0 -34 11q-39 -16 -63 -20v-9q0 -15 -7 -23l-272 -36q-15 -15 -15 -20l-316 -15h-167
l-207 66q-10 24 -36 73l-11 145q14 64 119 124q19 11 150 84q54 30 198 151q-1 4 -5 9l-204 -17l-92 26q-49 38 -49 130q0 39 22 94q21 9 38 29q31 11 72 13l193 11q23 -5 56 -11l178 11q9 1 20 1q74 0 164 -34q17 -13 17 -31q11 -7 33 -22q14 -25 49 -75v-17q-1 -4 -7 -35
q-4 -73 -82 -136q-67 -42 -133 -83q-80 -67 -239 -209q16 -10 45 -10l38 4l83 -14q6 2 24 14h16z" />
    <glyph glyph-name="braceleft" unicode="{" horiz-adv-x="865" 
d="M824 -655q0 -4 1 -8q-52 -17 -98 -48q-103 -26 -157 -26t-297 72q-9 20 -19 28q-88 43 -163 144q-33 65 -33 131t26 230q4 5 13 20q13 77 82 215q33 38 120 182q7 26 22 85q-20 36 -126 43l-78 -9q-1 0 -9 15t-48 15h-18q-7 16 -18 49q-12 10 -38 35v57q0 38 34 81
q34 44 66 52l66 16q82 20 136 92t54 135q0 18 -1 24l-89 482q6 25 6 75q13 64 23 127q20 78 100 129q80 23 238 65l77 8q45 4 61 4l144 -23q27 -16 54 -24q18 -36 26 -61q10 -9 25 -27v-58l-31 -63q-14 -4 -43 -24q-33 -10 -45 -10h-15l-256 10h-2q-55 0 -90 -77
q3 -32 3 -50t-3 -21q15 -85 39 -183q25 -98 39 -164t26 -104t13 -106q0 -68 -37 -178q-16 -28 -59 -86q30 -30 94 -100q22 -47 22 -123q0 -153 -42 -227l-103 -178q-99 -172 -99 -293q0 -66 29 -82q92 -32 164 -32l73 5q15 0 77 -12q0 -8 61 -35q17 -32 29 -63q0 -16 6 -51
q-32 -44 -32 -80z" />
    <glyph glyph-name="bar" unicode="|" horiz-adv-x="514" 
d="M124 -319q-9 0 -23 -16q-7 18 -23 49q-17 134 -17 148v16l22 1220q3 146 13 546l21 118q12 69 43 106l42 -2q31 -27 56 -31q8 -14 56 -63q41 -94 42 -115l11 -109l-33 -1759l-27 -139h-7q-30 0 -67 -16q-9 0 -20 11q-23 -5 -37 -5q-4 6 -51 41h-1z" />
    <glyph glyph-name="braceright" unicode="}" horiz-adv-x="895" 
d="M307 782l-9 27q0 77 46 185t46 118q0 9 -1 18q28 59 57 170q8 14 8 24t-2 17q23 75 23 115t-24 72t-50 32q-6 0 -12 -2l-134 -24q-10 -2 -21 -2q-109 0 -144 99q-20 59 -25 66q0 47 40 97t86 56l215 31h7q138 0 302 -160q96 -123 98 -315l-45 -267l-110 -304l198 -149
q-1 -16 -5 -129q-4 -10 -15 -33q-25 -12 -41 -34l-49 -17q-31 -11 -45 -41q-43 -39 -43 -91t53 -180q1 1 17 -57t27 -128t11 -88t3 -52l6 -53q-1 -137 -55 -223t-212 -170q-158 -85 -253 -85q-33 1 -77 33t-70 42t-34 9q-6 0 -12 -1l-16 65q0 65 24 87t158 92
q132 70 176 122q13 49 13 92t-15 91q0 26 -4 52q-7 21 -51 187t-44 191l26 128q20 39 62 114q-4 29 -44 83t-40 90z" />
    <glyph glyph-name="asciitilde" unicode="~" horiz-adv-x="1696" 
d="M1103 1337q-21 -1 -59 13t-58 18q-66 17 -174 116t-155 99q-5 1 -77 -33t-92 -34l-248 -208q-21 2 -25 3q-24 -7 -46 -16q-15 6 -46 16q-53 74 -53 82q8 18 52 108q14 12 49 43l195 172q145 76 276 76q46 0 172 -43q43 -21 114 -67q114 -91 123 -95q23 0 67 31
q69 31 320 224q6 5 48 28q25 2 49 9q23 -9 66 -25v-10q12 -11 28 -11q2 -1 2 -5t-6 -15q12 -8 25 -21v-61l-1 2q-5 0 -27 -32q-43 -50 -138 -142q-52 -36 -93 -82q-162 -123 -258 -127q-32 -8 -34 -11q1 -2 4 -2z" />
    <glyph glyph-name="nonbreakingspace" unicode="&#xa0;" horiz-adv-x="1078" 
 />
    <glyph glyph-name="exclamdown" unicode="&#xa1;" horiz-adv-x="637" 
d="M252 1106v3q46 21 56 21h12l55 -4q107 -64 108 -233q-11 0 -59 -386q-11 -185 -43 -665l4 -221q-15 -12 -25 -66q-64 -43 -112 -43t-90 38q-14 24 -44 58t-31 63v96l8 245v6q31 317 92 834q-2 30 -2 92q2 16 30 114q41 29 41 48zM516 1682l8 -72q0 -32 -30 -64t-81 -31
q-50 0 -77 10q-18 29 -51 60t-33 64q1 0 8 41q-2 11 -2 20q0 33 35 65v3q0 22 65 54q41 -16 79 -26q31 -22 55 -65t24 -59z" />
    <glyph glyph-name="cent" unicode="&#xa2;" horiz-adv-x="1196" 
d="M488 652l-7 42q-92 -40 -140 -98v-18l105 -78zM1150 1020l-8 -30q0 -12 -24 -55t-43 -50q-11 3 -27 3t-16 -4t5 -6q24 0 61 -18l-139 5l-89 -23l-25 5q-19 -13 -52 -85q-39 -125 -77 -264v-52l11 -12q23 -3 127 -31t193 -28v1q1 0 16 -58l-9 -13q9 -47 9 -59
q15 -15 15 -22q-13 -5 -37 -20q-12 -16 -35 -42l-139 -32q-23 -1 -55 -1t-75 1h-1q-5 0 -25 -9q-9 8 -15 20q-10 -9 -32 -20q9 -9 20 -9q-14 -4 -36 -13q-9 -8 -31 -70q-21 -62 -29 -69t-23 -50q-7 -6 -16 -6q-9 -9 -33 -56q-23 27 -77 78q-9 76 -29 215q-6 11 -17 19
q-20 2 -48 14q-13 2 -46 8q-32 29 -75 47q-13 13 -87 76q-2 9 -29 40q-22 47 -42 75t-19 69l-10 38q0 10 6 20l-9 10l-7 66q-1 29 3 35t4 10t11 20q41 145 189 256t303 156q26 16 74 50q3 12 19 50t16 50t-2 16q14 22 23 53t44 154q14 13 14 35q4 9 92 139q12 4 33 12
q17 -6 46 -6q13 -11 42 -31l35 -70q2 -44 13 -120l-62 -197v-25q9 -4 18 -14q17 -1 136 -11q25 -28 72 -71v-94z" />
    <glyph glyph-name="sterling" unicode="&#xa3;" horiz-adv-x="1623" 
d="M435 362q-31 0 -66 -61q-9 -18 -22 -49q13 -10 13 -12q-1 -1 -22 -5v-52q18 0 18 -19q6 9 25 19l67 144l-1 35h-12zM878 922h-10q-5 -7 -21 -18q9 -11 14 -11q-21 -4 -60 -13l-13 -318q-4 -20 -4 -36t1 -30q17 -20 153 -110t177 -90h24q1 -4 9 -4h55q7 0 62 13
q17 1 107 47t92 46h5q15 0 37 6q15 -15 21 -33l12 -3q19 -33 40 -39q-3 -10 -12 -31q3 -4 11 -4q1 -4 20 -32q-9 -7 -24 -21q2 -10 11 -13l-70 -70q4 -4 28 -13q-61 -42 -138 -79q-166 -37 -178 -37l-42 -3q-104 0 -224 69q-34 20 -222 138q-10 -21 -28 -62
q-40 -138 -147 -237q-99 -58 -173 -58q-8 0 -15 1l-138 11q1 3 1 5q0 16 -23 16l-16 -4q-34 23 -104 134q-3 11 -3 19t1 12l-15 123q7 66 17 97q2 66 62 179q90 117 202 135q67 19 85 19h56l23 206l-12 77l-162 14l13 12q-11 6 -19 6t-11 -1q-17 40 -43 69q-17 48 -17 80
q0 69 132 69h111l6 8q4 36 4 72t-2 71q12 40 12 83q14 71 42 190q10 19 26 78q43 59 71 90q64 43 109 62q143 30 143 36q30 -3 50 -3q107 -21 221 -85t152 -154q12 -68 13 -77t-20 -77q-4 4 -9 4q-13 -21 -30 -39q-18 -18 -22 -18t-17 12l-18 -1l-58 89v23q-39 55 -157 90
q-6 -3 -24 -6q-80 -3 -93 -29q-77 -37 -96 -142q-5 -32 -26 -162l3 -91q5 -4 13 -11l287 26l43 -3q45 -4 65 -7t78 -29q2 -16 28 -31q3 -9 11 -31q8 -6 23 -13l-20 -15q2 -5 8 -12q-3 -4 -3 -16l-56 -30q0 -6 5 -13q-42 -8 -130 -39q-232 -33 -270 -33zM1142 296q0 1 -3 2
v-1v-1h3z" />
    <glyph glyph-name="currency" unicode="&#xa4;" horiz-adv-x="2406" 
d="M1078 788v1q-1 0 -5 -21l16 16h64q-10 4 -75 4zM2300 101v-13q-62 -37 -118 -37h-6v-16l-417 -26h-209l-37 -9l-51 11l-46 -11l-138 14l-52 -10q-82 0 -61 7q-8 3 -15 20q-44 -11 -56 -11t-41 21q-4 -6 -23 -6t-147 48q-20 5 -44 9t-41 29q-25 16 -85 43q-78 59 -153 171
t-75 179v102l10 72q-4 4 -4 10q-22 8 -112 8l-78 -5q-27 0 -57 16q-7 -6 -30 -6t-50 24q-96 40 -119 163l20 110q107 74 144 74q7 -2 39 -15q12 -2 24 -2h17l309 6q95 2 126 80q27 19 49 61q41 40 161 148q253 218 528 260q105 51 334 51q12 0 123 -33q19 -12 51 -34
q39 -70 43 -101q-8 -17 -14 -61q10 -19 10 -35q-19 -18 -49 -18h-35l-135 3h-18q-18 0 -181 -26q-57 -22 -177 -64l-251 -191q0 -7 9 -15h518q8 0 55 -14q178 -13 323 -60q7 -11 79 -67l-16 -11q9 -20 25 -30q-20 -16 -61 -42q0 -9 -10 -20q5 -5 5 -14q41 -25 70 -31h-40
q-22 0 -27 18q-11 2 -31 2t-65 -12q-24 12 -40 8t-21 -4t-17 6h-21l-20 -16h-157q-31 0 -54 16l-56 -16q-18 10 -32 10l-76 -14l-54 10h-1l-276 -20l-15 -11l8 -11q5 5 5 9l38 -7q-79 -22 -99 -22l-26 11q-30 -20 -57 -20h-87q-18 -7 -59 -27q-35 -90 -35 -135
q0 -105 158 -207q7 -2 158 -48q58 -2 139 -13l91 -13l471 6l57 11h88l81 3q20 1 62 1t72 -15q73 -34 104 -101l-9 -41q0 -16 9 -26l-31 -20q5 -9 5 -18z" />
    <glyph glyph-name="currency" unicode="&#x20ac;" horiz-adv-x="2406" 
d="M1078 788v1q-1 0 -5 -21l16 16h64q-10 4 -75 4zM2300 101v-13q-62 -37 -118 -37h-6v-16l-417 -26h-209l-37 -9l-51 11l-46 -11l-138 14l-52 -10q-82 0 -61 7q-8 3 -15 20q-44 -11 -56 -11t-41 21q-4 -6 -23 -6t-147 48q-20 5 -44 9t-41 29q-25 16 -85 43q-78 59 -153 171
t-75 179v102l10 72q-4 4 -4 10q-22 8 -112 8l-78 -5q-27 0 -57 16q-7 -6 -30 -6t-50 24q-96 40 -119 163l20 110q107 74 144 74q7 -2 39 -15q12 -2 24 -2h17l309 6q95 2 126 80q27 19 49 61q41 40 161 148q253 218 528 260q105 51 334 51q12 0 123 -33q19 -12 51 -34
q39 -70 43 -101q-8 -17 -14 -61q10 -19 10 -35q-19 -18 -49 -18h-35l-135 3h-18q-18 0 -181 -26q-57 -22 -177 -64l-251 -191q0 -7 9 -15h518q8 0 55 -14q178 -13 323 -60q7 -11 79 -67l-16 -11q9 -20 25 -30q-20 -16 -61 -42q0 -9 -10 -20q5 -5 5 -14q41 -25 70 -31h-40
q-22 0 -27 18q-11 2 -31 2t-65 -12q-24 12 -40 8t-21 -4t-17 6h-21l-20 -16h-157q-31 0 -54 16l-56 -16q-18 10 -32 10l-76 -14l-54 10h-1l-276 -20l-15 -11l8 -11q5 5 5 9l38 -7q-79 -22 -99 -22l-26 11q-30 -20 -57 -20h-87q-18 -7 -59 -27q-35 -90 -35 -135
q0 -105 158 -207q7 -2 158 -48q58 -2 139 -13l91 -13l471 6l57 11h88l81 3q20 1 62 1t72 -15q73 -34 104 -101l-9 -41q0 -16 9 -26l-31 -20q5 -9 5 -18z" />
    <glyph glyph-name="yen" unicode="&#xa5;" horiz-adv-x="1706" 
d="M1642 1602q0 -14 -6 -19v-16q0 -31 3 -31t3 1l35 -36q-4 -16 -15 -47q-87 -96 -295 -332q-119 -139 -199 -299q-44 -39 -115 -158q-2 -49 -58 -114q11 -5 245 -41t315 -84q2 -9 10 -43q-17 -12 -17 -31t7 -38q-51 -43 -85 -46l-149 -13h-225q-2 1 -4 1t-10 -8l-161 6
q-8 0 -23 -14q-42 -277 -165 -621q-29 -27 -72 -43q-11 0 -22 10l-33 -10q-52 0 -96 50t-43 96q0 6 1 12l115 510l-11 10h-172q-30 10 -60 10h-41q-13 4 -67 47q-2 11 -14 48t-11 40q0 68 37 92q41 20 112 51q2 0 96 11l66 7q15 0 24 -9q25 7 41 20l17 -11h29l8 9v14
q-101 134 -280 475q-108 232 -262 474l-11 73q0 25 27 73t41 56t94 21q30 -29 59 -39q33 -35 96 -100v-20q82 -158 249 -467q46 -72 157 -257q4 -4 22 -14l615 799l98 31q20 -3 56 -27t38 -25q6 -20 6 -34z" />
    <glyph glyph-name="section" unicode="&#xa7;" horiz-adv-x="1141" 
d="M834 663q-2 0 -23 85q-128 132 -239 137q-172 71 -172 75t2 4h-17q-4 -1 -15 -31t-11 -38q0 -115 231 -223q41 -54 102 -76l105 -38q37 52 37 105zM298 -674l-62 134q0 100 90 167q164 124 212 193q199 179 235 327q-5 29 -37 60t-84 69q-69 38 -120 70t-249 174
q-28 35 -78 84q-5 6 -11 19q-41 40 -70 92q-20 58 -58 180q4 53 27 150q18 44 60 123q-108 154 -108 280q0 60 48 168q49 46 173 136l151 66l183 52q117 18 173 18t92 -28q20 -25 77 -60l21 -66l-11 -44q-15 -20 -77 -30t-129 -20q-22 -17 -103 -31q-65 -30 -98 -36
q-163 -70 -226 -150v-61q0 -33 99 -109q27 -10 134 -68q16 -2 204 -63q148 -106 176 -131q106 -94 106 -170q0 -10 -2 -23q57 -124 62 -204q8 -21 8 -35t-8 -39q0 -16 -15 -72q-51 -99 -53 -106v-35l86 -180v-88q0 -12 -29 -108t-34 -103l-80 -119q-41 -45 -128 -137
q-15 -21 -151 -105q-106 -66 -106 -141q-28 -16 -77 -48q-11 1 -27 1t-33 -4q4 -4 13 -4l-69 -22q-31 0 -50 22q-36 46 -47 55z" />
    <glyph glyph-name="dieresis" unicode="&#xa8;" horiz-adv-x="823" 
d="M766 1629q16 -13 16 -48q-12 -26 -43 -84q6 1 12 9q12 -15 13 -18q-3 3 -33 5l4 -18q-11 0 -34 -2q-19 -15 -54 -19q-35 21 -118 49q-9 7 -9 31q-11 8 -29 23q0 44 2 46v-3q7 11 21 38q86 35 166 41zM60 1556v21q14 25 50 82q-4 -2 -14 -8q-11 13 -13 16l34 -6l-3 18h38
q18 13 52 17q36 -23 116 -60q5 -7 5 -31q11 -7 27 -22q-4 -49 -5 -49v3q-7 -9 -24 -36q-86 -28 -168 -28l-81 55q-14 12 -14 28z" />
    <glyph glyph-name="copyright" unicode="&#xa9;" horiz-adv-x="1591" 
d="M1273 868q0 39 -13 89q0 65 -35 153t-91 143q-52 34 -85 34q-33 1 -51 -1t-59 5l-85 -16l-90 16q-29 -14 -35 -16l-27 5l-223 -141q17 -7 25 -7l153 80l188 54q13 -11 29 -11h21q33 3 43 3t70 -33q8 -42 47 -75q0 -23 10 -79l-10 -70q-13 -13 -29 -15l-143 -25
q-72 -29 -135 -45q-17 -13 -47 -38q3 -4 5 -11q51 -20 136 -42q30 -4 67 -13t72 -48q12 -39 12 -55q17 -15 31 -41v-14q-6 -4 -38 -44q0 -10 -7 -20q-16 -8 -41 -25h-156l-166 33q-49 34 -125 96q-26 57 -81 153q-13 46 -13 67l25 151q-97 -101 -97 -248q0 -39 2 -47
q18 -31 18 -38v-8l125 -126q17 0 26 -6q134 -101 255 -101h94l152 38q9 7 23 18q6 -5 10 -5q54 0 132 88t100 143q11 56 11 95zM1546 764q0 -27 -18 -99l-25 -96q-111 -171 -111 -197q0 -2 -42 -20q-77 -84 -178 -148q-158 -72 -408 -72q-175 0 -375 128q-245 157 -321 449
q-20 25 -26 101t-13 93q13 75 33 171t58 144t115 148q31 23 97 73q94 103 293 150q14 11 40 31q54 -13 79 -13q51 64 224 64q56 -1 104 -23t69 -26q9 -7 89 -68t91 -100l64 -63q147 -252 147 -447v-5q12 -45 14 -45v-130z" />
    <glyph glyph-name="ordfeminine" unicode="&#xaa;" horiz-adv-x="1026" 
d="M377 1385v-5l12 -13q21 7 43 7q43 37 92 109q-8 28 -26 45q-45 -11 -83 -57t-38 -86zM893 1071q0 2 -59 7q-52 51 -92 72q-38 46 -81 89l-112 -71h-9q-21 0 -47 -36h-139q-4 0 -145 69q-88 110 -88 220q0 48 32 111t35 75q85 112 185 138q23 2 88 10l68 8q59 0 169 -29
q4 -2 72 -72q0 -11 5 -24l-20 -81q43 -84 112 -181q9 -31 40 -67q59 -128 59 -168l-16 -54q-6 0 -22 -16h-35z" />
    <glyph glyph-name="guillemotleft" unicode="&#xab;" horiz-adv-x="1591" 
d="M749 630q0 26 -11 72q4 13 14 37l-8 9l-269 -226q-2 -8 -5 -18l476 -354l-4 -21q72 -73 72 -139t-44 -86l-15 -25q-29 13 -55 13h-32q-45 -1 -69 -1t-26 1q-85 60 -347 246t-360 312q-21 85 -21 150q-1 31 35 72t63 45q15 18 69 51t71 66q3 -1 9 -1t32 22q26 21 90 73
t186 170q75 72 146 90q45 -27 117 -99q63 -128 63 -145t-20 -36q1 -4 5 -21q-20 -15 -37 -29l-34 -29l5 -16l479 324q28 -5 70 -23q13 -16 42 -43q18 -22 20 -35q70 -59 70 -164q0 -35 -110 -119q-37 -23 -117 -73t-152 -115q104 -98 301 -292v-6q0 -35 51 -70q7 -21 27 -65
q-5 -10 -5 -26v-30q-13 -15 -33 -52q-3 -2 -40 -26q-56 16 -109 16l-33 -5q-47 0 -224 162q-43 39 -164 150q-50 64 -129 149q-31 70 -42 120q2 14 2 40z" />
    <glyph glyph-name="logicalnot" unicode="&#xac;" horiz-adv-x="2243" 
d="M2035 99q-11 0 -18 6l-8 -9v-36q-4 1 -42 14v-1q0 -1 -22 -10q-31 15 -58 15t-34 -4q-27 12 -41 23t-18 44q-34 17 -46 60q-1 7 -9 80l4 186l20 192q-4 6 -15 24q-34 0 -47 5l-40 -10l-305 16h-1l-31 -11l-20 11h-31q-5 -8 -26 -8q-4 3 -9 3t-13 -6q-13 3 -29 11
q-31 -11 -45 -11l-190 26l-480 10q-80 12 -145 12q-66 15 -105 35l-88 84q-4 18 -20 61q4 18 12 48q33 104 138 110l144 -20h58l686 -39l633 -9l81 27q90 0 155 -45q30 -39 102 -96l-3 -45q20 -33 20 -74l-17 -174v-449q-7 15 -31 31q-18 -22 -41 -59q-14 -18 -25 -18z" />
    <glyph glyph-name="registered" unicode="&#xae;" horiz-adv-x="1688" 
d="M314 1009q0 -54 20 -123q41 -44 136 -109l59 553q1 2 -3 28t-4 33q-208 -182 -208 -382zM920 648q14 0 88 19q8 4 20 14q4 -6 17 -6t88 43q-23 4 -63 16q-48 0 -112 35t-104 45q-43 55 -79 82l-35 -229l94 -19q24 0 40 12q32 -12 46 -12zM642 1482q30 -7 38 -7l150 81
q-19 0 -33 5zM1109 1453q0 -33 22 -60q19 -99 19 -121t-11 -30q5 -4 5 -16t-43 -142l-13 -22v-17l78 -61q47 -47 70 -111q-11 -15 -11 -29t3 -40t4 -27q1 0 1 6q137 161 137 207q0 2 10 28t15 101l-20 123q-136 209 -255 231q-6 -4 -11 -6v-14zM888 1576h-36l-6 -15h24z
M737 299q-5 -1 -76 19t-101 25q-396 171 -481 399q-54 244 -54 318l11 69q6 45 32 190q31 60 98 181q8 6 133 146q26 14 61 51q59 41 180 119q64 22 138 50q41 6 113 15q16 7 69 18l185 -24q8 -21 30 -41q165 -46 329 -216t230 -345q0 -23 3 -68q10 -20 10 -30v-134
l-33 -222q-16 -44 -59 -108q-13 -33 -66 -104t-55 -75q-174 -163 -287 -187q-14 -3 -36 -23q-64 -16 -194 -36l-110 13h-70z" />
    <glyph glyph-name="macron" unicode="&#xaf;" horiz-adv-x="1387" 
d="M434 1516h-2q3 3 10 9q-2 -9 -8 -9zM322 1524q0 -4 5 -8q-9 -8 -28 -8q-3 8 -14 20h-109q-22 20 -73 57q-4 30 -29 52q-23 59 -23 98t17 80q15 17 53 47l172 2l370 -20l189 13q13 0 53 15q9 -4 21 -10l211 24q57 -32 118 -56q25 -32 45 -78t47 -86v-19q-5 -3 -34 -45
q-27 -19 -112 -32l-356 -25h-267q-166 0 -215 -26l-29 11h-9q-3 -2 -3 -6z" />
    <glyph glyph-name="degree" unicode="&#xb0;" horiz-adv-x="775" 
d="M436 1510q-68 0 -71 -4q2 -2 5 -3q-35 -52 -35 -59q0 -33 99 -33q23 0 65 15t48 28q0 12 -5 29q-38 27 -106 27zM65 1511q0 51 42 78q11 9 35 9q20 51 84 134q50 18 63 18h115q6 -9 75 -38q7 -6 78 -41q25 -27 75 -80l62 -110q43 -76 43 -111l-10 -95q-12 -20 -41 -50
q-29 -17 -84 -48l-78 -12l-98 -5q-9 0 -16 16q-74 0 -78 -4q-5 2 -5 5l-143 72q-22 26 -70 88q-49 123 -49 174z" />
    <glyph glyph-name="plusminus" unicode="&#xb1;" horiz-adv-x="1401" 
d="M902 -76l-72 13q-8 0 -42 -18h-77l-200 -24q-18 -7 -33 -7t-15 -3t2 -6q3 2 7 2t11 -6q-39 0 -46 -2q-9 6 -30 6q-20 0 -28 -14l-41 5q-11 -5 -17 -17l-10 12q-15 -4 -51 -17q-33 17 -105 27v17q-30 18 -77 75v7q0 30 16 42v19l-20 70l40 106q18 11 52 37l145 10
q3 5 16 10l558 41h123l202 20l15 -24q3 1 8 4l55 -20l62 -125q-9 -6 -21 -17q4 -23 4 -24q9 -2 27 -16h-23q-15 -24 -44 -68q9 -18 9 -23v-45l-108 -31h-193q-8 0 -18 11q-65 -27 -81 -27zM907 1100h113l112 -20q12 -10 54 -28t43 -42q0 -7 -3 -15q21 -61 42 -92
q-10 -16 -11 -16q12 -7 21 -15q0 -8 -9 -8t-14 1q-4 -5 -4 -15q-16 -5 -50 -25q0 -4 2 -8l22 6q22 -16 22 -20h-18l-33 10l-67 -16v-19q-50 -15 -50 -16h-111l-123 -27q2 -3 2 -18q-9 -13 -32 -13q-24 -47 -24 -171v-103q-38 -29 -51 -29t-18 7q-9 -13 -32 -31q-4 14 -31 51
q-25 4 -61 4q-20 35 -38 37q-20 34 -20 94v107q-11 4 -34 13l-113 -20h-13q-37 0 -67 36q-7 -3 -49 -16q1 6 9 13l-103 97v18q23 15 23 41t-17 39v20q15 15 21 68q27 63 135 63h92l174 27q8 9 12 14q16 38 30 133t14 103q16 31 68 72h20q7 0 103 -123l13 -54v-96
q27 -18 49 -18zM439 -129q-3 3 -4 1q0 -1 4 -1z" />
    <glyph glyph-name="acute" unicode="&#xb4;" horiz-adv-x="1008" 
d="M931 1760q1 0 11 3q0 -13 17 -24q-7 -10 -25 -28q1 -5 5 -10q-18 -18 -48 -54q-60 -41 -233 -153q-172 -112 -242 -166t-130 -106q-31 -15 -89 -33q-3 3 -10 14h-55l-31 26l-48 -4q6 13 17 22q-21 21 -21 49l10 30q22 16 36 40q69 48 268 184q162 120 410 263q10 5 10 15
l46 21q13 -7 40 -15v-28q13 -3 34 -18q13 -28 28 -28z" />
    <glyph glyph-name="mu" unicode="&#xb5;" horiz-adv-x="2646" 
d="M963 1590q0 -7 5 -12l-9 -8q-54 0 -87 -16q-176 -156 -176 -492v-33l-16 -174l37 -274l422 3l67 13h15l10 -13q24 17 42 17l23 -6l153 33q54 436 155 673q-11 27 -11 38l-118 128l-27 -5l-227 108q-6 -10 -23 -10l-76 11q-8 0 -13 -1l-98 20h-48zM1956 701q-13 0 -13 4
q1 3 2 4h27l14 15q11 -10 21 -10q35 15 98 49q69 12 103 36q82 30 176 128t112 204q7 17 15 31v41q0 49 -44 136q-11 9 -28 29h-26q-10 25 -89 65q-26 -16 -26 -17q-104 26 -176 26t-96 -18q-138 -103 -220 -405q-23 -57 -40 -183t-23 -151q9 -20 16 -27h39q0 13 2 15
q8 -15 29 -15l72 27q0 11 4 15l26 -7q0 7 5 10q4 -2 20 -2zM1842 431h472l146 -20q3 -15 43 -38q11 -18 34 -56q-29 -25 -29 -43t3 -33q-48 -29 -82 -78q-78 -21 -269 -54q-8 5 -47 5q-85 -8 -260 -28q-24 -18 -29 -42q11 -31 11 -61q0 -97 -85 -130q1 -5 1 -15t-6 -16h-17
q-20 22 -27 22q-11 -11 -11 -22q-5 2 -43 15q-47 68 -62 68l-72 154q-12 0 -30 -6q1 1 1 5t-9 4h-13l-167 -22h-64q-5 13 -41 28l-53 99q5 36 23 73l17 35v17q1 12 -17 12t-63 -8l-44 -8h-76q-58 0 -137 -36v-28l56 -212v-6q0 -92 -67 -110q-10 -18 -28 -34q-4 8 -21 16
q-18 -25 -20 -25q-8 0 -43 17q-121 139 -206 354l-23 23l-246 -10h-12q-10 0 -125 15q-40 11 -63 54q3 4 3 11l-41 34v64q60 119 80 139t85 21h7l236 -5l7 9l-15 266l6 180l30 225q47 353 328 590q114 52 191 53q0 -2 124 -8q62 -19 98 -20q44 -15 130 -41q45 -26 195 -113
l90 -90q24 -36 92 -148q15 23 53 66q67 102 161 165t164 63h21q12 7 33 7l215 -25q111 -56 144 -97q32 -41 80 -125q44 -96 44 -134v-118l-15 -127q0 -6 -24 -47q-2 -41 -7 -64q-26 -30 -26 -80q-96 -118 -136 -158q-80 -83 -152 -118q-23 -27 -99 -62t-107 -55
q-28 -30 -81 -63q-51 -11 -141 -51q9 -19 27 -19z" />
    <glyph glyph-name="paragraph" unicode="&#xb6;" horiz-adv-x="1425" 
d="M567 553l-56 11q-5 -4 -28 -4t-83 16t-68 20q-68 11 -146 77t-103 136q-34 137 -34 209q1 6 9 18q7 190 92 273q69 133 190 237q28 24 207 173l105 50q52 25 59 57l67 41l85 -20l143 27h85l83 10q6 1 11 1q39 0 79 -34v-16q9 -11 36 -24l45 -222l-16 -457l-18 -180v-76
l-38 -365v-85l-16 -565q-20 -47 -31 -65q-16 -9 -25 -33l-22 4q-7 -4 -18 -25h-29l-14 8q-25 -8 -40 -26q-7 10 -31 22l-17 -10q-6 2 -23 9l-24 7q1 4 1 12t-3 25q-26 64 -29 64v358l45 485v92l23 246l14 237v158q0 57 -6 86q-17 20 -53 20t-43 -24q-14 -52 -21 -153
t-13 -127l-20 -411q0 2 2 2t10 -25t8 -55q0 -85 -28 -113q0 -17 -5 -51l-27 -533l-15 -137v-84q0 -10 -28 -44t-33 -34t-13 4q-10 -16 -30 -46l-13 11q-20 -6 -34 -6q-4 10 -17 27q-27 -8 -43 -20t-18 -38v13q-48 36 -48 50q0 5 1 11q-11 11 -20 11q-11 47 -11 57v12z" />
    <glyph glyph-name="cedilla" unicode="&#xb8;" horiz-adv-x="932" 
d="M854 -370q0 -35 -37 -100q-69 -126 -188 -184q-62 -28 -223 -101q-17 -5 -21 -18h-244l4 7l-55 121l9 26q-3 21 -3 62q21 102 154 138q66 28 189 110q-2 13 -42 18v15q-37 3 -98 36q-9 30 -17 38t-8 16t-14 32q-6 24 -6 73q0 118 91 321q34 15 40 15h41
q139 -101 139 -195q0 -18 -5 -31q14 -23 64 -57t58 -42q85 -77 143 -184q23 -120 28 -120q1 0 1 4z" />
    <glyph glyph-name="ordmasculine" unicode="&#xba;" horiz-adv-x="907" 
d="M347 1452q7 0 18 -13q10 10 22 10h90q29 0 105 44q0 5 6 15q-52 36 -111 36l-76 -9l-6 7l-48 -67v-23zM796 1517q0 -18 13 -32q-2 -5 -2 -18t6 -40q-4 -8 -38 -103q-1 -5 -60 -87q2 -6 2 -11q-11 -5 -63 -30q-155 -19 -155 -22l-165 9q-43 18 -133 54q-102 68 -102 175
q-1 2 -5 8t-4 19q0 130 88 205q41 180 244 180q140 0 201 -59q95 -27 125 -121q48 -75 48 -127z" />
    <glyph glyph-name="guillemotright" unicode="&#xbb;" horiz-adv-x="1573" 
d="M172 215q0 55 245 348q-99 62 -294 188q-53 113 -57 113t-3 -1v112q-1 36 39 75t81 39t135 -63q27 -27 99 -67q71 -40 121 -61q46 -29 148 -66t121 -46l88 -118l43 -137q9 17 55 53t49 68q-68 42 -212 134t-183 156q-45 53 -45 80v107q0 41 94 120l162 -57l292 -201
q10 -8 199 -115l90 -96q16 -34 46 -97v-23q0 -18 5 -77q-54 -83 -176 -219t-317 -406q-32 -46 -53 -112q-16 -24 -48 -68q-20 -15 -62 -46q0 10 -11 20h-53l-24 -10q-11 0 -50 21h-31q-8 22 -15 57q-3 4 -27 14l-11 39v96l-4 13l11 65q71 127 150 237q25 35 29 68
q-205 -135 -328 -354q-48 -45 -54 -45q-5 0 -37 18h-14q-29 -18 -47 -18t-40 5t-61 42q2 7 2 14q0 30 -37 41l-10 39v121z" />
    <glyph glyph-name="questiondown" unicode="&#xbf;" horiz-adv-x="1479" 
d="M412 -125q0 -43 86 -45l156 -3l78 8q78 8 113 8q28 4 169 35t141 34q17 0 39 -4l20 24q4 -2 33 -10l81 8q-5 -8 -14 -20q7 -10 7 -18t-2 -13q25 -16 29 -16h1q-6 -13 -25 -41q0 -8 10 -8q-10 -23 -40 -43v-47q-106 -97 -203 -110q-44 -43 -163 -59q-8 -10 -9 -15l-28 4
q-26 -16 -41 -16l-29 5q-7 0 -25 -4t-18 -5t1 -1q-11 0 -22 11q-11 -8 -40 -27h-76q-35 0 -84 8q-4 4 -35 19q-2 -4 -2 -10q-84 -12 -95 -12q13 0 13 13q-124 53 -160 74q-85 46 -119 103q-8 13 -23 22q-14 28 -36 81q-17 94 -17 109q9 27 68 167q4 2 129 116q11 5 159 102
q206 100 238 113q135 56 238 69l14 15l32 347v99l20 270q14 32 33 84q26 54 88 54l43 -11q43 -64 79 -136q2 -29 12 -94l-31 -308v-86l-20 -489l-15 -7h-70l-90 -31l-29 7q-29 0 -74 -25q-288 -96 -490 -273q-5 -13 -5 -22zM1155 1511q-8 0 -18 10l-8 -10h-18q-13 0 -53 43
q-20 2 -44 26t-24 38q0 16 1 40q0 24 -5 48q0 36 42 82t70 46q29 0 61 -22t62 -43q8 -17 31 -50l16 -108q0 -23 -17 -59q-59 -41 -96 -41zM1214 -68z" />
    <glyph glyph-name="Agrave" unicode="&#xc0;" horiz-adv-x="1339" 
d="M311 1825v5q0 12 14 33q13 21 63 21t83 -25q12 -3 33 -8l223 -118q120 -63 246 -86q6 -12 29 -21q29 -34 29 -43v-1l23 -11q0 -6 -12 -13q0 -6 6 -13q-5 -3 -14 -11l2 -20q-57 -11 -57 -16q3 -2 4 -7l-20 -1q-18 3 -115 26l-367 164q-49 22 -89 48t-58 31q-22 36 -23 46
l4 12q-4 4 -4 8zM636 1092q0 -4 -1 -5l-8 13q-6 -9 -17 -25q-4 8 -8 20l-118 -258q4 -5 4 -9q-52 -60 -70 -143h14q13 1 33 1l29 -5q15 0 38 10l52 2l88 -21q0 1 14 5l203 -80q5 5 3 15t-20 90q-18 79 -21 97l-63 199q-39 123 -98 209q-29 -22 -62 -102q8 -9 8 -13zM383 399
q-13 -13 -23 -18q0 7 8 25zM1275 38q0 -17 -6 -39v14q-5 4 -15 15l-10 -15q1 -4 8 -12v-18q-5 -5 -18 -5q-7 -20 -20 -41h-87l-77 101q-17 94 -68 154q7 15 7 22q-1 7 -5 11t-20 40q-32 44 -75 77q-32 33 -68 51l-75 39q-38 2 -64 15t-32 13q-2 6 -8 15h-10q-5 -5 -13 -15
q-42 5 -93 24q-14 -10 -42 -28q-2 6 -16 19q-7 0 -16 -7q-7 2 -16 7l-14 -17q14 -6 19 -13q-60 -8 -80 -35h-34l-9 8q-13 0 -31 -4l-65 -127q-3 -5 -3 -9t3 -11q-11 -22 -30 -56q-34 0 -38 5l-9 -14h-14q-9 20 -27 28t-23 12q1 3 4 8q-12 17 -14 37q-8 9 -23 30v57q1 1 5 19
q43 41 63 77q40 41 49 84q14 27 44 80q13 39 50 94q17 40 48 122q7 9 22 32q6 27 6 33q33 66 75 159t68 135t54 102q29 82 82 203q10 4 30 14q21 -7 66 -16q48 -32 71 -56q7 -13 18 -38q65 -82 179 -381q5 -8 13 -8l18 -65q0 -11 -7 -17q7 -3 19 -15q41 -110 121 -440
q3 -6 9 -17q37 -179 100 -292q0 -14 43 -100q-7 -5 -21 -16q2 -12 2 -29z" />
    <glyph glyph-name="Aacute" unicode="&#xc1;" horiz-adv-x="1339" 
d="M323 1511q-17 13 -17 31q7 19 8 19q16 9 28 24q54 30 147 81t159 88t223 108q8 3 8 9l36 14q9 -5 30 -10v-17q10 -2 28 -11q10 -18 21 -18q1 1 9 2q0 -7 13 -15q-5 -5 -20 -17q2 -3 5 -6q-15 -11 -38 -33q-47 -26 -209 -109t-263 -155q-25 -9 -69 -21q-3 3 -8 10h-44
l-23 16l-38 -3q5 8 14 13zM636 1092q0 -4 -1 -5l-8 13q-6 -9 -17 -25q-4 8 -8 20l-118 -258q4 -5 4 -9q-52 -60 -70 -143h14q13 1 33 1l29 -5q15 0 38 10l52 2l88 -21q0 1 14 5l203 -80q5 5 3 15t-20 90q-18 79 -21 97l-63 199q-39 123 -98 209q-29 -22 -62 -102q8 -9 8 -13
zM383 399q-13 -13 -23 -18q0 7 8 25zM1275 38q0 -17 -6 -39v14q-5 4 -15 15l-10 -15q1 -4 8 -12v-18q-5 -5 -18 -5q-7 -20 -20 -41h-87l-77 101q-17 94 -68 154q7 15 7 22q-1 7 -5 11t-20 40q-32 44 -75 77q-32 33 -68 51l-75 39q-38 2 -64 15t-32 13q-2 6 -8 15h-10
q-5 -5 -13 -15q-42 5 -93 24q-14 -10 -42 -28q-2 6 -16 19q-7 0 -16 -7q-7 2 -16 7l-14 -17q14 -6 19 -13q-60 -8 -80 -35h-34l-9 8q-13 0 -31 -4l-65 -127q-3 -5 -3 -9t3 -11q-11 -22 -30 -56q-34 0 -38 5l-9 -14h-14q-9 20 -27 28t-23 12q1 3 4 8q-12 17 -14 37
q-8 9 -23 30v57q1 1 5 19q43 41 63 77q40 41 49 84q14 27 44 80q13 39 50 94q17 40 48 122q7 9 22 32q6 27 6 33q33 66 75 159t68 135t54 102q29 82 82 203q10 4 30 14q21 -7 66 -16q48 -32 71 -56q7 -13 18 -38q65 -82 179 -381q5 -8 13 -8l18 -65q0 -11 -7 -17
q7 -3 19 -15q41 -110 121 -440q3 -6 9 -17q37 -179 100 -292q0 -14 43 -100q-7 -5 -21 -16q2 -12 2 -29z" />
    <glyph glyph-name="Acircumflex" unicode="&#xc2;" horiz-adv-x="1339" 
d="M1016 1445q-38 -6 -51 4q-7 -3 -20 -8q-18 17 -66 72t-186 161q-5 -4 -20 -4l-65 -61l3 -9q-5 -4 -13 -10q2 -11 3 -13q-3 -1 -12 -3l-152 -183l-32 4q-22 -4 -28 -10q-3 3 -9 15l-13 -2q1 4 3 10q-9 7 -24 8l-34 73q1 19 24 58h9q7 1 17 7t50 50t147 164q32 28 85 91
q20 18 52 26q9 -2 30 -6q18 -14 49 -24q59 -49 155 -147t121 -122q12 -24 36 -67q-24 -30 -38 -62q-5 -1 -26 -11zM636 1092q0 -4 -1 -5l-8 13q-6 -9 -17 -25q-4 8 -8 20l-118 -258q4 -5 4 -9q-52 -60 -70 -143h14q13 1 33 1l29 -5q15 0 38 10l52 2l88 -21q0 1 14 5l203 -80
q5 5 3 15t-20 90q-18 79 -21 97l-63 199q-39 123 -98 209q-29 -22 -62 -102q8 -9 8 -13zM383 399q-13 -13 -23 -18q0 7 8 25zM1275 38q0 -17 -6 -39v14q-5 4 -15 15l-10 -15q1 -4 8 -12v-18q-5 -5 -18 -5q-7 -20 -20 -41h-87l-77 101q-17 94 -68 154q7 15 7 22q-1 7 -5 11
t-20 40q-32 44 -75 77q-32 33 -68 51l-75 39q-38 2 -64 15t-32 13q-2 6 -8 15h-10q-5 -5 -13 -15q-42 5 -93 24q-14 -10 -42 -28q-2 6 -16 19q-7 0 -16 -7q-7 2 -16 7l-14 -17q14 -6 19 -13q-60 -8 -80 -35h-34l-9 8q-13 0 -31 -4l-65 -127q-3 -5 -3 -9t3 -11
q-11 -22 -30 -56q-34 0 -38 5l-9 -14h-14q-9 20 -27 28t-23 12q1 3 4 8q-12 17 -14 37q-8 9 -23 30v57q1 1 5 19q43 41 63 77q40 41 49 84q14 27 44 80q13 39 50 94q17 40 48 122q7 9 22 32q6 27 6 33q33 66 75 159t68 135t54 102q29 82 82 203q10 4 30 14q21 -7 66 -16
q48 -32 71 -56q7 -13 18 -38q65 -82 179 -381q5 -8 13 -8l18 -65q0 -11 -7 -17q7 -3 19 -15q41 -110 121 -440q3 -6 9 -17q37 -179 100 -292q0 -14 43 -100q-7 -5 -21 -16q2 -12 2 -29zM601 1577zM601 1578h1l-1 -1v1z" />
    <glyph glyph-name="Atilde" unicode="&#xc3;" horiz-adv-x="1339" 
d="M1096 1867l16 -8q-1 -4 -3 -9q7 -4 13 -11v-33h-1q-1 0 -19 -22t-70 -72q-29 -20 -51 -45q-88 -67 -140 -69q-18 -5 -18 -6t2 -1q-11 -1 -33 7t-44 14t-81 59q-59 54 -85 54q-3 -1 -42 -19t-50 -18l-135 -113q-19 2 -38 -7q-8 4 -26 9q-28 40 -28 44q4 10 28 59
q8 7 27 23l106 95q78 41 150 41q25 0 94 -23q23 -12 61 -37q63 -50 67 -52q13 0 37 17q37 17 174 122q4 2 26 15q14 2 27 5q13 -5 36 -14v-5zM636 1092q0 -4 -1 -5l-8 13q-6 -9 -17 -25q-4 8 -8 20l-118 -258q4 -5 4 -9q-52 -60 -70 -143h14q13 1 33 1l29 -5q15 0 38 10
l52 2l88 -21q0 1 14 5l203 -80q5 5 3 15t-20 90q-18 79 -21 97l-63 199q-39 123 -98 209q-29 -22 -62 -102q8 -9 8 -13zM383 399q-13 -13 -23 -18q0 7 8 25zM1275 38q0 -17 -6 -39v14q-5 4 -15 15l-10 -15q1 -4 8 -12v-18q-5 -5 -18 -5q-7 -20 -20 -41h-87l-77 101
q-17 94 -68 154q7 15 7 22q-1 7 -5 11t-20 40q-32 44 -75 77q-32 33 -68 51l-75 39q-38 2 -64 15t-32 13q-2 6 -8 15h-10q-5 -5 -13 -15q-42 5 -93 24q-14 -10 -42 -28q-2 6 -16 19q-7 0 -16 -7q-7 2 -16 7l-14 -17q14 -6 19 -13q-60 -8 -80 -35h-34l-9 8q-13 0 -31 -4
l-65 -127q-3 -5 -3 -9t3 -11q-11 -22 -30 -56q-34 0 -38 5l-9 -14h-14q-9 20 -27 28t-23 12q1 3 4 8q-12 17 -14 37q-8 9 -23 30v57q1 1 5 19q43 41 63 77q40 41 49 84q14 27 44 80q13 39 50 94q17 40 48 122q7 9 22 32q6 27 6 33q33 66 75 159t68 135t54 102q29 82 82 203
q10 4 30 14q21 -7 66 -16q48 -32 71 -56q7 -13 18 -38q65 -82 179 -381q5 -8 13 -8l18 -65q0 -11 -7 -17q7 -3 19 -15q41 -110 121 -440q3 -6 9 -17q37 -179 100 -292q0 -14 43 -100q-7 -5 -21 -16q2 -12 2 -29z" />
    <glyph glyph-name="Adieresis" unicode="&#xc4;" horiz-adv-x="1339" 
d="M1022 1744q17 -15 17 -48q-12 -27 -43 -85q5 1 12 8q11 -13 12 -17q-3 4 -33 4l4 -18q-11 0 -34 -2q-19 -13 -53 -18q-36 20 -119 49q-9 7 -9 30q-11 9 -29 24q-1 43 1 44t2 -1q6 11 20 38q87 36 166 41zM317 1671v20q13 25 50 81q-5 -1 -15 -7q-11 13 -12 16l33 -6
l-2 18h38q18 13 52 17q35 -22 115 -60q6 -6 6 -31q10 -8 27 -23q-4 -47 -5 -47v3q-8 -10 -24 -37q-86 -29 -169 -29l-81 56q-13 13 -13 29zM636 1092q0 -4 -1 -5l-8 13q-6 -9 -17 -25q-4 8 -8 20l-118 -258q4 -5 4 -9q-52 -60 -70 -143h14q13 1 33 1l29 -5q15 0 38 10l52 2
l88 -21q0 1 14 5l203 -80q5 5 3 15t-20 90q-18 79 -21 97l-63 199q-39 123 -98 209q-29 -22 -62 -102q8 -9 8 -13zM383 399q-13 -13 -23 -18q0 7 8 25zM1275 38q0 -17 -6 -39v14q-5 4 -15 15l-10 -15q1 -4 8 -12v-18q-5 -5 -18 -5q-7 -20 -20 -41h-87l-77 101
q-17 94 -68 154q7 15 7 22q-1 7 -5 11t-20 40q-32 44 -75 77q-32 33 -68 51l-75 39q-38 2 -64 15t-32 13q-2 6 -8 15h-10q-5 -5 -13 -15q-42 5 -93 24q-14 -10 -42 -28q-2 6 -16 19q-7 0 -16 -7q-7 2 -16 7l-14 -17q14 -6 19 -13q-60 -8 -80 -35h-34l-9 8q-13 0 -31 -4
l-65 -127q-3 -5 -3 -9t3 -11q-11 -22 -30 -56q-34 0 -38 5l-9 -14h-14q-9 20 -27 28t-23 12q1 3 4 8q-12 17 -14 37q-8 9 -23 30v57q1 1 5 19q43 41 63 77q40 41 49 84q14 27 44 80q13 39 50 94q17 40 48 122q7 9 22 32q6 27 6 33q33 66 75 159t68 135t54 102q29 82 82 203
q10 4 30 14q21 -7 66 -16q48 -32 71 -56q7 -13 18 -38q65 -82 179 -381q5 -8 13 -8l18 -65q0 -11 -7 -17q7 -3 19 -15q41 -110 121 -440q3 -6 9 -17q37 -179 100 -292q0 -14 43 -100q-7 -5 -21 -16q2 -12 2 -29z" />
    <glyph glyph-name="Aring" unicode="&#xc5;" horiz-adv-x="1339" 
d="M755 1688q-27 21 -81 21t-43 -5q-23 -36 -23 -42q0 -23 70 -23q18 1 48 11t33 19q0 7 -4 19zM1275 38q0 -17 -6 -39v14q-5 4 -15 15l-10 -15q1 -4 8 -12v-18q-5 -5 -18 -5q-7 -20 -20 -41h-87l-77 101q-17 94 -68 154q7 15 7 22q-1 7 -5 11t-20 40q-32 44 -75 77
q-32 33 -68 51l-75 39q-38 2 -64 15t-32 13q-2 6 -8 15h-10q-5 -5 -13 -15q-42 5 -93 24q-14 -10 -42 -28q-2 6 -16 19q-7 0 -16 -7q-7 2 -16 7l-14 -17q14 -6 19 -13q-60 -8 -80 -35h-34l-9 8q-13 0 -31 -4l-65 -127q-3 -5 -3 -9t3 -11q-11 -22 -30 -56q-34 0 -38 5l-9 -14
h-14q-9 20 -27 28t-23 12q1 3 4 8q-12 17 -14 37q-8 9 -23 30v57q1 1 5 19q43 41 63 77q40 41 49 84q14 27 44 80q13 39 50 94q17 40 48 122q7 9 22 32q6 27 6 33q33 66 75 159t68 135t54 102q24 68 64 161l-97 49q-18 21 -51 63q-34 88 -34 126t31 55q7 7 25 7q13 36 59 97
q36 11 45 11h82q3 -7 55 -26q13 -11 55 -30l54 -58q75 -127 75 -157l-8 -68q-8 -14 -30 -37q-20 -10 -59 -32q-17 -2 -29 -4q14 -12 30 -50q65 -82 179 -381q5 -8 13 -8l18 -65q0 -11 -7 -17q7 -3 19 -15q41 -110 121 -440q3 -6 9 -17q37 -179 100 -292q0 -14 43 -100
q-7 -5 -21 -16q2 -12 2 -29zM636 1092q0 -4 -1 -5l-8 13q-6 -9 -17 -25q-4 8 -8 20l-118 -258q4 -5 4 -9q-52 -60 -70 -143h14q13 1 33 1l29 -5q15 0 38 10l52 2l88 -21q0 1 14 5l203 -80q5 5 3 15t-20 90q-18 79 -21 97l-63 199q-39 123 -98 209q-29 -22 -62 -102
q8 -9 8 -13zM383 399q-13 -13 -23 -18q0 7 8 25z" />
    <glyph glyph-name="AE" unicode="&#xc6;" horiz-adv-x="2757" 
d="M811 956v-11q19 0 50 -4l245 35q3 12 3 27l-47 327q-2 -6 -13 -17h-15q-2 -16 -24 -31q-9 -20 -31 -49v-13q-9 -4 -18 -12l-76 -117q6 -4 6 -11q-11 -9 -31 -22l-52 -84q3 -11 3 -18zM1769 1611q-18 -2 -98 -18q-7 10 -25 23q-39 0 -55 5l-81 -18h-179q-12 0 -43 -22v-47
l13 -66v-77l36 -338q0 -21 17 -52l134 14l79 -12l271 15l209 -2l169 -31q14 0 41 9l202 -43q6 -4 18 -16q13 0 84 -50q-1 -3 -1 -15t18 -42v-25q-53 -31 -53 -58v-3q-19 -13 -38 -13l-24 4q-21 -22 -64 -22h-8l-332 18q-12 4 -28 8l-286 3l-319 -26l-25 3q-17 -28 -11 -60
q6 -33 30 -198q6 -45 49 -161l12 -12l299 -18h8q8 0 25 8q25 -8 44 -8l110 13h64l292 8h3q49 0 183 -23q85 -42 143 -101v-20q0 -15 10 -59q7 -10 8 -12v-52q-16 -25 -75 -38l-84 -19l-64 9h-64l-698 -21q-92 7 -277 35q-77 27 -122 34q-39 38 -47 74q-4 41 -27 174v2
q0 10 -11 47l-22 183l-42 188h-29l-166 -35l-253 -34l-85 13q-10 -4 -46 -43q-6 -12 -11 -31q-11 -18 -69 -98t-167 -291q-7 -26 -10 -53q-11 -23 -31 -65q-20 -22 -25 -31q-35 -7 -79 -28h-16q-3 7 -8 17q-45 0 -72 11q0 26 -29 73q-4 13 -4 25t2 23q-8 8 -15 8
q0 14 -10 40l8 7q-2 3 -5 8q19 12 35 60t34 80t28 56q12 24 64 99q52 74 52 98q0 4 -5 15t-7 15q0 -1 2 -1q1 0 17 66q53 37 98 105q30 27 47 47t22 45l202 262q7 4 17 8q11 19 48 62q-1 6 -1 13t1 15q117 130 128 184q31 41 119 196q19 26 62 103q21 80 46 104t67 24h13
l187 -12l215 15q11 1 39 1t38 -18l116 22h273l71 -8h132l177 -28q8 -21 39 -45v-24l22 -15q-1 -6 -1 -11q0 -36 24 -41v-62l-10 -31q-10 -12 -27 -30q-16 10 -34 10t-46 -18q-53 18 -76 18l-15 -4l-37 18h-82q-12 0 -18 12q-24 -8 -41 -8zM218 629v1v-1z" />
    <glyph glyph-name="Ccedilla" unicode="&#xc7;" horiz-adv-x="1778" 
d="M1273 155v2q-2 0 -7 -20q7 0 25 18h-18zM389 93q6 0 12 -7h16q7 0 23 8q-23 13 -31 13t-14 -6q-6 7 -66 29q-4 -3 -4 -13h-18q-2 12 -18 15q-23 11 -27 11q-4 14 -7 15q5 2 5 6q-6 6 -18 6q8 0 12 4l-12 8l-11 -10q-5 6 -16 6q-6 13 -16 37l-58 27q1 3 6 10q-10 3 -26 35
q-14 4 -49 67q-9 88 -19 155l-14 101q0 389 463 811q40 11 76 43t48 32t15 -1q13 18 41 53q55 31 163 90q22 -4 27 -4l87 62l278 76h87q7 -17 20 -48q8 -10 34 -32q-20 -11 -20 -30q0 -68 2 -71q1 2 2 5q12 -11 36 -38q-4 0 -25 -10q1 -3 5 -20l-31 -25q11 -4 42 -15
q-37 -20 -51 -20t-19 2q-4 -6 -15 -14q-29 -4 -81 -14q-13 -10 -75 -36t-130 -56q-54 -35 -211 -117q-90 -82 -168 -131q-62 -64 -182 -211l-24 -15q-16 -10 -16 -26t7 -29q-18 -20 -60 -63q1 -5 4 -19l-30 -112v-74q0 -11 28 -35t42 -25q11 -10 34 -28q6 -2 160 -46
q58 -9 123 -11l176 -7l197 13l266 30q14 0 27 -5l77 26q5 -6 15 -6l117 30h42l11 -14h71q6 -6 6 -23q4 -4 17 -4q-3 -6 -6 -16q14 -13 16 -13q-12 -5 -25 -18t-13 -15t7 -3h30q-3 -5 -15 -38q8 -4 20 -11q-18 -5 -65 -47q-2 -9 -2 -15t2 -12q-7 0 -29 4q-6 0 -12 -18
q-41 -9 -95 -42l-96 -26q-12 0 -16 4q-12 -10 -14 -10q8 -12 30 -27q-7 -2 -25 -2t-61 7q16 0 16 12h-18q-10 -10 -10 -21q-10 11 -31 11v-20l-24 -13q39 0 51 -7q-10 0 -10 -9h-158q-6 0 -6 -7l-139 -24q31 0 90 -17q2 6 11 26h18l-5 -7l22 -4l16 11q0 -5 11 -18h54
q-23 -3 -65 -18q-8 2 -22 10l-7 -10q-7 4 -27 4q-8 -3 -18 -12q24 -6 56 -6l-75 -7q-1 0 -1 2t9 9h-36l9 -8q0 -16 -18 -16h-66q15 -31 15 -56q0 -24 -5 -37q13 -23 63 -57t59 -42q85 -77 143 -184q23 -120 26 -120t3 4q0 -35 -37 -100q-69 -126 -188 -184
q-62 -28 -223 -101q-17 -5 -21 -18h-244l4 7l-55 121l9 26q-3 21 -3 62q21 102 154 138q66 28 189 110q-2 13 -42 18v15q-37 3 -98 36q-8 29 -16 37t-9 18q0 8 -14 31q-6 24 -6 89t43 187q-32 -2 -70 -7q-21 18 -12 18q-15 7 -33 7l-37 -5q-43 0 -51 21h-14q-1 -1 -17 -6
l-139 49q4 5 10 5zM1757 384v-1h-1z" />
    <glyph glyph-name="Egrave" unicode="&#xc8;" horiz-adv-x="1381" 
d="M350 1816v5q0 9 14 29t62 19q48 0 81 -23q11 -2 33 -7l217 -106q118 -58 241 -78q6 -11 29 -19q28 -30 28 -34v-6l23 -10q0 -6 -13 -11q1 -6 7 -12q-5 -3 -15 -10l3 -19q-56 -10 -56 -14q3 -1 4 -6l-20 -1q-17 3 -112 23l-360 149q-48 19 -87 43t-56 28q-23 32 -23 42
l3 10q-3 4 -3 8zM523 1362q19 0 26 -2l326 70q14 0 18 -5q3 5 3 10l59 9q18 -2 58 -9q24 13 34 22q8 0 26 -4l100 20q6 -3 40 -10q8 11 24 18q10 0 10 -13q-13 -7 -28 -12q4 -3 22 -3q9 3 48 14l2 -2q-2 -3 -6 -5q11 -15 13 -15t1 2v-18q4 -3 18 -8q8 9 25 9q43 -11 72 -11
q4 -9 2 -11q-39 -20 -39 -49q0 -3 -53 -39l6 -6q9 0 12 5q5 -10 5 -14q-6 -1 -22 -9l-8 13q-6 -13 -28 -13t-32 -4q4 -3 12 -3q-81 -31 -85 -37q-2 1 -8 5q-3 -6 -16 -23h-42q-35 -41 -78 -41q-6 0 -13 1q-83 -10 -83 -34q-10 0 -18 9q-57 -16 -57 -19q-13 0 -16 5
q-7 -8 -16 -24q-4 2 -11 11q-2 -3 -11 -3t-24 3q-4 -9 -4 -15t1 -10q-2 1 -5 1h-13q-12 -9 -12 -18l-26 3l-47 -14q0 1 -12 6q-7 -8 -7 -19l-109 -47q-13 -40 -41 -105q3 -11 8 -36l423 33h123q0 -20 -2 -24h52q-1 -1 -1 -5t4 -12q-10 -11 -12 -11q16 -5 45 -19
q-11 -19 -38 -28l-7 -13q2 -3 3 -16v-20q-5 -7 -25 -15q3 -6 6 -13l-173 -59q-21 0 -29 5q-13 -10 -62 -18l-25 -27q-10 1 -18 1h-15q-3 -1 -3 -10l-72 -10q-21 0 -32 8l-125 -51q-17 0 -55 -17t-45 -20q-5 -8 -24 -41q-15 -46 -29 -105v-31l539 41l37 -8h78q17 -4 66 -11
l101 -16q25 -8 74 -22q24 -24 74 -71v-47l-17 -19l12 -13q-41 -17 -31 -17q-2 -11 -10 -36q-7 -2 -19 -2t-32 2q-4 -6 -4 -13q-22 -9 -32 -20v1q0 6 -15 12q-5 -1 -11 -1l-53 6h-1q-17 0 -33 -12l12 -10q-25 0 -32 4q1 4 7 11q-5 2 -22 2q3 -6 6 -13l-225 -5q-41 -2 -51 -19
l-10 9h-36l-168 -28q-15 0 -18 5q-8 -6 -17 -13h-28q-5 -5 -5 -17q0 6 -5 12h-15q-8 -9 -8 -14q-13 -3 -80 -6q-10 -7 -38 -17l-128 -16h-92l-11 29q-67 48 -81 104t-14 123q59 177 88 289q-1 6 -1 10q16 29 20 60l-12 53v65q9 10 27 48t36 39q3 0 6 -1l39 124v21l-7 9h-25
q-81 89 -96 170l29 109q45 32 48 35l20 -5q46 0 132 28q22 21 68 59q42 -23 59 -23q21 7 40 7zM791 1112v-4q-2 4 -3 9q3 -2 3 -5zM1184 1252zM777 1095q4 -2 5 -4l-1 -2q-2 4 -4 6zM777 1095q-1 1 -2 1q1 -1 2 -1z" />
    <glyph glyph-name="Eacute" unicode="&#xc9;" horiz-adv-x="1381" 
d="M1160 1828q1 0 11 2q0 -9 15 -18q-6 -6 -23 -19q2 -4 5 -7q-16 -13 -44 -39l-230 -115q-189 -93 -329 -185q-28 -10 -82 -23q-3 2 -9 10h-51l-28 18l-46 -3q6 9 16 16q-19 14 -19 34l9 22q20 11 33 28q64 34 174 92q110 59 190 101q78 42 264 123q8 3 8 10l43 15
q11 -4 36 -10v-20q12 -2 32 -13q12 -19 25 -19zM523 1362q19 0 26 -2l326 70q14 0 18 -5q3 5 3 10l59 9q18 -2 58 -9q24 13 34 22q8 0 26 -4l100 20q6 -3 40 -10q8 11 24 18q10 0 10 -13q-13 -7 -28 -12q4 -3 22 -3q9 3 48 14l2 -2q-2 -3 -6 -5q11 -15 13 -15t1 2v-18
q4 -3 18 -8q8 9 25 9q43 -11 72 -11q4 -9 2 -11q-39 -20 -39 -49q0 -3 -53 -39l6 -6q9 0 12 5q5 -10 5 -14q-6 -1 -22 -9l-8 13q-6 -13 -28 -13t-32 -4q4 -3 12 -3q-81 -31 -85 -37q-2 1 -8 5q-3 -6 -16 -23h-42q-35 -41 -78 -41q-6 0 -13 1q-83 -10 -83 -34q-10 0 -18 9
q-57 -16 -57 -19q-13 0 -16 5q-7 -8 -16 -24q-4 2 -11 11q-2 -3 -11 -3t-24 3q-4 -9 -4 -15t1 -10q-2 1 -5 1h-13q-12 -9 -12 -18l-26 3l-47 -14q0 1 -12 6q-7 -8 -7 -19l-109 -47q-13 -40 -41 -105q3 -11 8 -36l423 33h123q0 -20 -2 -24h52q-1 -1 -1 -5t4 -12
q-10 -11 -12 -11q16 -5 45 -19q-11 -19 -38 -28l-7 -13q2 -3 3 -16v-20q-5 -7 -25 -15q3 -6 6 -13l-173 -59q-21 0 -29 5q-13 -10 -62 -18l-25 -27q-10 1 -18 1h-15q-3 -1 -3 -10l-72 -10q-21 0 -32 8l-125 -51q-17 0 -55 -17t-45 -20q-5 -8 -24 -41q-15 -46 -29 -105v-31
l539 41l37 -8h78q17 -4 66 -11l101 -16q25 -8 74 -22q24 -24 74 -71v-47l-17 -19l12 -13q-41 -17 -31 -17q-2 -11 -10 -36q-7 -2 -19 -2t-32 2q-4 -6 -4 -13q-22 -9 -32 -20v1q0 6 -15 12q-5 -1 -11 -1l-53 6h-1q-17 0 -33 -12l12 -10q-25 0 -32 4q1 4 7 11q-5 2 -22 2
q3 -6 6 -13l-225 -5q-41 -2 -51 -19l-10 9h-36l-168 -28q-15 0 -18 5q-8 -6 -17 -13h-28q-5 -5 -5 -17q0 6 -5 12h-15q-8 -9 -8 -14q-13 -3 -80 -6q-10 -7 -38 -17l-128 -16h-92l-11 29q-67 48 -81 104t-14 123q59 177 88 289q-1 6 -1 10q16 29 20 60l-12 53v65q9 10 27 48
t36 39q3 0 6 -1l39 124v21l-7 9h-25q-81 89 -96 170l29 109q45 32 48 35l20 -5q46 0 132 28q22 21 68 59q42 -23 59 -23q21 7 40 7zM791 1112v-4q-2 4 -3 9q3 -2 3 -5zM1184 1252zM777 1095q4 -2 5 -4l-1 -2q-2 4 -4 6zM777 1095q-1 1 -2 1q1 -1 2 -1z" />
    <glyph glyph-name="Ecircumflex" unicode="&#xca;" horiz-adv-x="1381" 
d="M1073 1474q0 -1 -21 -1t-26 5q-7 -4 -19 -9q-17 17 -61 67t-170 148q-6 -4 -19 -4l-60 -56q0 -3 3 -8q-5 -4 -13 -9q2 -12 4 -12h1q0 -1 -12 -3l-140 -169l-29 4q-20 -4 -26 -9q-3 3 -9 14l-13 -2q2 4 4 10q-8 6 -22 7l-32 67q2 17 22 53h5q12 -1 20 5t46 50
q36 38 136 148q28 26 77 84q19 16 49 24q8 -2 27 -6q17 -13 45 -22q54 -44 142 -134t112 -113q10 -22 33 -62q-23 -27 -35 -56q-4 -2 -23 -11h4zM523 1362q19 0 26 -2l326 70q14 0 18 -5q3 5 3 10l59 9q18 -2 58 -9q24 13 34 22q8 0 26 -4l100 20q6 -3 40 -10q8 11 24 18
q10 0 10 -13q-13 -7 -28 -12q4 -3 22 -3q9 3 48 14l2 -2q-2 -3 -6 -5q11 -15 13 -15t1 2v-18q4 -3 18 -8q8 9 25 9q43 -11 72 -11q4 -9 2 -11q-39 -20 -39 -49q0 -3 -53 -39l6 -6q9 0 12 5q5 -10 5 -14q-6 -1 -22 -9l-8 13q-6 -13 -28 -13t-32 -4q4 -3 12 -3
q-81 -31 -85 -37q-2 1 -8 5q-3 -6 -16 -23h-42q-35 -41 -78 -41q-6 0 -13 1q-83 -10 -83 -34q-10 0 -18 9q-57 -16 -57 -19q-13 0 -16 5q-7 -8 -16 -24q-4 2 -11 11q-2 -3 -11 -3t-24 3q-4 -9 -4 -15t1 -10q-2 1 -5 1h-13q-12 -9 -12 -18l-26 3l-47 -14q0 1 -12 6
q-7 -8 -7 -19l-109 -47q-13 -40 -41 -105q3 -11 8 -36l423 33h123q0 -20 -2 -24h52q-1 -1 -1 -5t4 -12q-10 -11 -12 -11q16 -5 45 -19q-11 -19 -38 -28l-7 -13q2 -3 3 -16v-20q-5 -7 -25 -15q3 -6 6 -13l-173 -59q-21 0 -29 5q-13 -10 -62 -18l-25 -27q-10 1 -18 1h-15
q-3 -1 -3 -10l-72 -10q-21 0 -32 8l-125 -51q-17 0 -55 -17t-45 -20q-5 -8 -24 -41q-15 -46 -29 -105v-31l539 41l37 -8h78q17 -4 66 -11l101 -16q25 -8 74 -22q24 -24 74 -71v-47l-17 -19l12 -13q-41 -17 -31 -17q-2 -11 -10 -36q-7 -2 -19 -2t-32 2q-4 -6 -4 -13
q-22 -9 -32 -20v1q0 6 -15 12q-5 -1 -11 -1l-53 6h-1q-17 0 -33 -12l12 -10q-25 0 -32 4q1 4 7 11q-5 2 -22 2q3 -6 6 -13l-225 -5q-41 -2 -51 -19l-10 9h-36l-168 -28q-15 0 -18 5q-8 -6 -17 -13h-28q-5 -5 -5 -17q0 6 -5 12h-15q-8 -9 -8 -14q-13 -3 -80 -6
q-10 -7 -38 -17l-128 -16h-92l-11 29q-67 48 -81 104t-14 123q59 177 88 289q-1 6 -1 10q16 29 20 60l-12 53v65q9 10 27 48t36 39q3 0 6 -1l39 124v21l-7 9h-25q-81 89 -96 170l29 109q45 32 48 35l20 -5q46 0 132 28q22 21 68 59q42 -23 59 -23q21 7 40 7zM791 1112v-4
q-2 4 -3 9q3 -2 3 -5zM1184 1252zM777 1095q4 -2 5 -4l-1 -2q-2 4 -4 6zM777 1095q-1 1 -2 1q1 -1 2 -1z" />
    <glyph glyph-name="Edieresis" unicode="&#xcb;" horiz-adv-x="1381" 
d="M1090 1726q16 -14 16 -48q-12 -27 -43 -85q6 2 12 9q12 -14 13 -17q-3 3 -33 4l4 -18q-12 0 -34 -2q-19 -14 -54 -18q-35 20 -119 49q-8 6 -8 30q-12 9 -29 23q0 44 1 46q1 -1 1 -3q7 12 20 38q87 36 166 41zM383 1654v20q14 24 51 81q-5 -1 -14 -8q-12 13 -14 17l34 -7
l-2 18h37q19 13 54 18q35 -23 114 -61q6 -6 6 -31q11 -7 26 -22q-2 -48 -3 -48v3q-8 -10 -25 -36q-85 -29 -168 -29l-82 55q-14 14 -14 30zM523 1362q19 0 26 -2l326 70q14 0 18 -5q3 5 3 10l59 9q18 -2 58 -9q24 13 34 22q8 0 26 -4l100 20q6 -3 40 -10q8 11 24 18
q10 0 10 -13q-13 -7 -28 -12q4 -3 22 -3q9 3 48 14l2 -2q-2 -3 -6 -5q11 -15 13 -15t1 2v-18q4 -3 18 -8q8 9 25 9q43 -11 72 -11q4 -9 2 -11q-39 -20 -39 -49q0 -3 -53 -39l6 -6q9 0 12 5q5 -10 5 -14q-6 -1 -22 -9l-8 13q-6 -13 -28 -13t-32 -4q4 -3 12 -3
q-81 -31 -85 -37q-2 1 -8 5q-3 -6 -16 -23h-42q-35 -41 -78 -41q-6 0 -13 1q-83 -10 -83 -34q-10 0 -18 9q-57 -16 -57 -19q-13 0 -16 5q-7 -8 -16 -24q-4 2 -11 11q-2 -3 -11 -3t-24 3q-4 -9 -4 -15t1 -10q-2 1 -5 1h-13q-12 -9 -12 -18l-26 3l-47 -14q0 1 -12 6
q-7 -8 -7 -19l-109 -47q-13 -40 -41 -105q3 -11 8 -36l423 33h123q0 -20 -2 -24h52q-1 -1 -1 -5t4 -12q-10 -11 -12 -11q16 -5 45 -19q-11 -19 -38 -28l-7 -13q2 -3 3 -16v-20q-5 -7 -25 -15q3 -6 6 -13l-173 -59q-21 0 -29 5q-13 -10 -62 -18l-25 -27q-10 1 -18 1h-15
q-3 -1 -3 -10l-72 -10q-21 0 -32 8l-125 -51q-17 0 -55 -17t-45 -20q-5 -8 -24 -41q-15 -46 -29 -105v-31l539 41l37 -8h78q17 -4 66 -11l101 -16q25 -8 74 -22q24 -24 74 -71v-47l-17 -19l12 -13q-41 -17 -31 -17q-2 -11 -10 -36q-7 -2 -19 -2t-32 2q-4 -6 -4 -13
q-22 -9 -32 -20v1q0 6 -15 12q-5 -1 -11 -1l-53 6h-1q-17 0 -33 -12l12 -10q-25 0 -32 4q1 4 7 11q-5 2 -22 2q3 -6 6 -13l-225 -5q-41 -2 -51 -19l-10 9h-36l-168 -28q-15 0 -18 5q-8 -6 -17 -13h-28q-5 -5 -5 -17q0 6 -5 12h-15q-8 -9 -8 -14q-13 -3 -80 -6
q-10 -7 -38 -17l-128 -16h-92l-11 29q-67 48 -81 104t-14 123q59 177 88 289q-1 6 -1 10q16 29 20 60l-12 53v65q9 10 27 48t36 39q3 0 6 -1l39 124v21l-7 9h-25q-81 89 -96 170l29 109q45 32 48 35l20 -5q46 0 132 28q22 21 68 59q42 -23 59 -23q21 7 40 7zM791 1112v-4
q-2 4 -3 9q3 -2 3 -5zM1184 1252zM777 1095q4 -2 5 -4l-1 -2q-2 4 -4 6zM777 1095q-1 1 -2 1q1 -1 2 -1z" />
    <glyph glyph-name="Igrave" unicode="&#xcc;" horiz-adv-x="767" 
d="M726 1459q0 -7 -12 -15q1 -7 7 -15q-5 -5 -14 -13l2 -26q-54 -13 -54 -20q3 -2 4 -8l-19 -1q-16 5 -108 31l-346 201q-46 27 -84 59t-54 37q-21 44 -22 56l4 15q-3 5 -4 12v1q0 15 14 42t59 27q46 0 78 -31q11 -4 32 -10l209 -144q113 -77 232 -105q6 -14 27 -26
q27 -40 27 -46v-7l22 -13v-1zM434 552v-68l-12 -111v-66l-4 -238q0 -4 12 -18q-6 0 -19 -13h-11l-14 5q-28 -19 -28 -29v-13q-32 -13 -56 -13t-41 13t-75 55l-22 138l58 971q6 39 10 69t9 53q5 7 33 75t63 76q11 -3 30 -12q50 -53 52 -58q29 -31 41 -69l8 -121l-30 -481
l5 -118q-9 -13 -9 -27z" />
    <glyph glyph-name="Iacute" unicode="&#xcd;" horiz-adv-x="919" 
d="M58 1459q-20 15 -20 33l9 22q21 10 34 26q65 33 175 89t189 97t266 119q8 4 8 10l44 15q11 -5 36 -10v-19q12 -2 32 -13q11 -19 26 -19l11 2q0 -8 15 -16q-7 -7 -23 -20q1 -3 5 -6q-18 -12 -45 -38q-57 -28 -242 -115t-320 -174q-29 -10 -82 -23q-3 2 -9 10h-52l-28 17
l-45 -2q5 9 16 15zM569 552v-68l-13 -111v-66l-4 -238q0 -4 13 -18q-5 0 -19 -13h-12l-12 5q-30 -20 -30 -37q0 -2 1 -5q-33 -13 -57 -13t-40 13q-18 13 -76 55l-21 138l58 971q5 39 9 69t8 45t34 83q29 68 64 76q11 -3 29 -12q51 -53 53 -58q29 -31 40 -69l9 -121l-30 -481
l5 -118q-9 -13 -9 -27z" />
    <glyph glyph-name="Icircumflex" unicode="&#xce;" horiz-adv-x="1002" 
d="M873 1344q-23 0 -31 6q-8 -4 -25 -11q-21 23 -79 89t-224 194q-8 -4 -25 -4l-79 -74q1 -5 4 -12q-6 -4 -17 -11l4 -15h2q1 -1 -16 -5l-185 -223l-38 6q-27 -6 -35 -11q-2 4 -10 18l-16 -3q2 5 4 13q-11 8 -29 10l-41 87q2 23 28 71h13q10 0 20 7q11 8 59 62t179 199
q39 33 103 109q24 22 63 32q12 -3 36 -8q22 -17 60 -28q70 -58 186 -178t148 -148q14 -28 43 -82q-29 -36 -45 -74q-6 -2 -32 -14q6 0 6 -1q-8 -1 -31 -1zM616 552v-68l-12 -111v-66l-4 -238q0 -4 12 -18q-6 0 -19 -13h-12l-13 5q-28 -19 -28 -29v-13q-32 -13 -56 -13
t-41 13t-75 55l-22 138l58 971q6 39 10 69t9 53q5 7 33 75t63 76q11 -3 30 -12q50 -53 52 -58q29 -31 41 -69l8 -121l-31 -481l6 -118q-9 -13 -9 -27z" />
    <glyph glyph-name="Idieresis" unicode="&#xcf;" horiz-adv-x="788" 
d="M724 1678q16 -13 16 -48q-11 -27 -42 -85q5 2 11 9q13 -14 13 -17q-3 3 -33 4l4 -18q-11 0 -34 -2q-19 -14 -53 -18q-36 20 -119 49q-9 6 -9 30q-11 8 -28 24q0 43 1 45q0 -1 1 -3q6 12 20 39q87 35 166 40zM18 1605v21q14 24 50 81q-4 -1 -13 -7q-12 12 -13 16l33 -7
l-2 18h37q19 13 53 17q35 -22 115 -59q5 -7 5 -31q11 -8 28 -23q-4 -48 -5 -48v3q-7 -9 -25 -37q-85 -28 -167 -28l-82 56q-14 12 -14 28zM445 552v-68l-13 -111v-66l-3 -238q0 -4 12 -18q-6 0 -19 -13h-12l-13 5q-29 -20 -29 -37q0 -2 1 -5q-33 -13 -57 -13t-40 13t-76 55
l-21 138l57 971q7 39 11 69t8 45t33 83t64 76q11 -3 30 -12q50 -53 52 -58q29 -31 40 -69l9 -121l-31 -481l6 -118q-9 -13 -9 -27z" />
    <glyph glyph-name="Ntilde" unicode="&#xd1;" horiz-adv-x="1668" 
d="M574 1443q-28 2 -54 -10q-11 5 -35 12q-39 57 -39 63q6 14 40 82q10 9 38 34l146 131q110 58 211 58q35 0 131 -33q33 -16 87 -51q87 -69 94 -73q18 0 51 24q53 24 244 170q5 4 37 22q19 2 37 7q18 -7 50 -19l1 -7q9 -9 16 -10t7 -2q-1 -6 -4 -12q9 -6 19 -16l-1 -47
l-1 1q-5 -3 -20 -25q-33 -37 -105 -107q-40 -28 -71 -63q-124 -94 -196 -97q-26 -7 -26 -8t3 -1q-17 0 -46 10t-44 14q-50 12 -133 88t-118 76q-5 0 -59 -26t-71 -26zM1354 141q4 -13 -8 -88l-17 -5q-7 -13 -20 -39t-31 -31q-7 3 -41 9q-7 -16 -37 -16l4 -13q-10 -1 -40 -1
t-82 42q-189 147 -336 446q-4 8 -26 33q-6 28 -26 57t-48 75q-30 46 -46 110t-70 152t-87 123q-27 -37 -41 -113t-33 -176q-5 -25 -68 -140v-5q0 -9 -33 -95q6 -29 7 -33q-1 -33 -35 -71t-79 -88h-6q-15 0 -31 -14q-10 4 -18 14h-41l-5 17l-33 10q-6 21 -30 60v47q1 9 27 63
t28 66q75 122 144 372l109 385q9 25 71 87q57 6 74 6q17 -1 66 -31t58 -54q114 -102 208 -294q54 -116 156 -332t193 -308q55 76 147 388t127 488q0 86 12 121t12 49q13 20 23 37l18 6q24 31 42 32q3 9 9 17q16 -5 63 -50l15 17q8 -17 21 -29h14v-5q0 -13 -7 -26l7 -9v-5
q0 -16 18 -39l-18 -112l-5 9l-8 -9l2 -9q0 -18 -17 -37q11 -10 12 -23l-10 3q-7 -4 -11 -11q-3 -17 -8 -52q10 -6 14 -18q-14 -12 -30 -36l12 -8v-16q-14 -4 -20 -18l8 -4q-7 -20 -20 -51q0 -57 -16 -63l3 -8l-20 -25l8 -51l-17 -12l-1 -16l5 -9l-20 -18l8 -9
q-11 -20 -22 -35l12 -16v-15q-5 -3 -20 -10v-21l22 -3l-14 -13q-5 -10 -5 -24t5 -30q-3 -24 -24 -51q0 -17 -9 -31t-9 -27q-9 -18 -9 -22v-1q7 -16 9 -25q-13 -19 -31 -55l1 -6l11 9v-8q0 -20 -9 -34l-16 1l-5 -52l-17 -10q3 -12 8 -24q-6 -25 -23 -71l7 -22z" />
    <glyph glyph-name="Ograve" unicode="&#xd2;" horiz-adv-x="1820" 
d="M732 1821q0 9 15 29t63 20q49 0 83 -24q11 -2 34 -7l223 -108q120 -59 246 -80q7 -11 29 -20q30 -31 30 -35v-5l23 -9q0 -7 -13 -12q0 -6 7 -12q-5 -3 -15 -10l3 -19q-57 -10 -57 -15q3 -2 3 -6l-21 -1q-18 4 -115 23l-367 151q-50 21 -90 45t-57 28q-23 33 -24 42l5 12
q-5 5 -5 13zM1573 916q-1 52 -39 128t-71 77q-7 8 -103 60q-33 8 -87 28q-146 32 -204 32l-109 -15l-3 6l-116 -38q-4 9 -4 12t1 4l-19 -9q-13 -21 -26 -30q-18 -8 -53 -15q-26 -12 -75 -60l-72 -69l-65 -167q-7 -4 -9 -36q-10 -8 -20 -11q-7 5 -16 16q-8 -11 -22 -33
q-9 8 -28 25l-9 -13q-2 3 -2 10t1 13q-7 12 -21 28t-25 16h-1q-24 -22 -28 -33q4 -3 4 -9q-12 -12 -20 -37q-13 -5 -14 -5q4 -5 4 -19t-15 -44q-1 -9 -1 -14t1 -8q-14 -42 -14 -49v-78q0 -22 14 -81q27 -50 83 -128q12 -10 30 -24t96 -52q79 -38 92 -39q13 0 16 5
q13 -15 49 -16l133 -4h22q20 0 58 14q156 29 337 135t283 263q23 54 38 98t26 65l3 99v2zM1536 335h-10l-91 -86v-22q-1 3 -6 13h-19l-146 -129q-28 -3 -70 -29h-19v-4q-75 -32 -81 -32t-9 3l-120 -58h-13q-25 0 -25 3l1 2l-163 -22h-83l-146 22q-52 18 -153 50
q-62 33 -133 83q-150 108 -185 290q-5 22 -12 60t-7 60t1 51q-4 40 -3 59q1 37 52 204q52 168 178 268q62 50 122 77l107 47q79 81 112 92q155 127 461 148q12 -5 19 -17l13 4q-1 2 -2 13h17q5 -7 5 -12q-9 0 -16 -6q36 -14 56 -14t32 4q-22 6 -63 17q28 12 39 10
q10 -2 76 -18t87 -19q3 -5 19 -12q0 -8 -6 -14q5 2 25 2l144 -74q12 -1 20 1t8 0l-9 -8q54 -40 68 -40l18 -33h10q8 0 14 13l114 -222q0 -16 -3 -25q3 -19 24 -38q-3 -1 -7 -4q5 -30 16 -74l-25 -177l-75 -220l-154 -174q1 -9 2 -14q-2 1 -6 1zM1544 331q0 -2 -1 -4
q0 1 -1 7q2 -1 2 -3z" />
    <glyph glyph-name="Oacute" unicode="&#xd3;" horiz-adv-x="1820" 
d="M1334 1810q8 0 21 2q0 -9 17 -16q-7 -7 -26 -19q2 -4 6 -7q-20 -13 -51 -37q-64 -28 -264 -110t-374 -178q-33 -10 -93 -22q-4 2 -10 10h-59l-32 16l-52 -2q7 9 20 15l-10 7q-13 8 -13 27l10 20q23 10 39 27l281 124q172 82 432 178q10 4 10 10l49 15q14 -5 42 -10v-19
q13 -2 36 -12q13 -19 21 -19zM1573 916q-1 52 -39 128t-71 77q-7 8 -103 60q-33 8 -87 28q-146 32 -204 32l-109 -15l-3 6l-116 -38q-4 9 -4 12t1 4l-19 -9q-13 -21 -26 -30q-18 -8 -53 -15q-26 -12 -75 -60l-72 -69l-65 -167q-7 -4 -9 -36q-10 -8 -20 -11q-7 5 -16 16
q-8 -11 -22 -33q-9 8 -28 25l-9 -13q-2 3 -2 10t1 13q-7 12 -21 28t-25 16h-1q-24 -22 -28 -33q4 -3 4 -9q-12 -12 -20 -37q-13 -5 -14 -5q4 -5 4 -19t-15 -44q-1 -9 -1 -14t1 -8q-14 -42 -14 -49v-78q0 -22 14 -81q27 -50 83 -128q12 -10 30 -24t96 -52q79 -38 92 -39
q13 0 16 5q13 -15 49 -16l133 -4h22q20 0 58 14q156 29 337 135t283 263q23 54 38 98t26 65l3 99v2zM1536 335h-10l-91 -86v-22q-1 3 -6 13h-19l-146 -129q-28 -3 -70 -29h-19v-4q-75 -32 -81 -32t-9 3l-120 -58h-13q-25 0 -25 3l1 2l-163 -22h-83l-146 22q-52 18 -153 50
q-62 33 -133 83q-150 108 -185 290q-5 22 -12 60t-7 60t1 51q-4 40 -3 59q1 37 52 204q52 168 178 268q62 50 122 77l107 47q79 81 112 92q155 127 461 148q12 -5 19 -17l13 4q-1 2 -2 13h17q5 -7 5 -12q-9 0 -16 -6q36 -14 56 -14t32 4q-22 6 -63 17q28 12 39 10
q10 -2 76 -18t87 -19q3 -5 19 -12q0 -8 -6 -14q5 2 25 2l144 -74q12 -1 20 1t8 0l-9 -8q54 -40 68 -40l18 -33h10q8 0 14 13l114 -222q0 -16 -3 -25q3 -19 24 -38q-3 -1 -7 -4q5 -30 16 -74l-25 -177l-75 -220l-154 -174q1 -9 2 -14q-2 1 -6 1zM1544 331q0 -2 -1 -4
q0 1 -1 7q2 -1 2 -3z" />
    <glyph glyph-name="Ocircumflex" unicode="&#xd4;" horiz-adv-x="1820" 
d="M1378 1515q0 -1 -26 -1t-31 4q-8 -3 -23 -7q-20 13 -72 59t-205 133q-7 -2 -23 -2l-71 -51q0 -3 4 -8q-7 -3 -17 -7q4 -11 5 -11h2q0 -1 -15 -3l-169 -152l-36 4q-24 -4 -31 -8q-3 2 -10 13l-15 -2q2 3 5 9q-10 5 -27 6l-38 60q2 15 26 48h5q16 0 26 5t54 42t162 136
q35 22 94 74q23 15 58 22l33 -6q21 -11 55 -19q64 -40 170 -121t135 -101q13 -20 39 -56q-26 -24 -41 -50q-5 -1 -28 -10h5zM1573 916q-1 52 -39 128t-71 77q-7 8 -103 60q-33 8 -87 28q-146 32 -204 32l-109 -15l-3 6l-116 -38q-4 9 -4 12t1 4l-19 -9q-13 -21 -26 -30
q-18 -8 -53 -15q-26 -12 -75 -60l-72 -69l-65 -167q-7 -4 -9 -36q-10 -8 -20 -11q-7 5 -16 16q-8 -11 -22 -33q-9 8 -28 25l-9 -13q-2 3 -2 10t1 13q-7 12 -21 28t-25 16h-1q-24 -22 -28 -33q4 -3 4 -9q-12 -12 -20 -37q-13 -5 -14 -5q4 -5 4 -19t-15 -44q-1 -9 -1 -14t1 -8
q-14 -42 -14 -49v-78q0 -22 14 -81q27 -50 83 -128q12 -10 30 -24t96 -52q79 -38 92 -39q13 0 16 5q13 -15 49 -16l133 -4h22q20 0 58 14q156 29 337 135t283 263q23 54 38 98t26 65l3 99v2zM1536 335h-10l-91 -86v-22q-1 3 -6 13h-19l-146 -129q-28 -3 -70 -29h-19v-4
q-75 -32 -81 -32t-9 3l-120 -58h-13q-25 0 -25 3l1 2l-163 -22h-83l-146 22q-52 18 -153 50q-62 33 -133 83q-150 108 -185 290q-5 22 -12 60t-7 60t1 51q-4 40 -3 59q1 37 52 204q52 168 178 268q62 50 122 77l107 47q79 81 112 92q155 127 461 148q12 -5 19 -17l13 4
q-1 2 -2 13h17q5 -7 5 -12q-9 0 -16 -6q36 -14 56 -14t32 4q-22 6 -63 17q28 12 39 10q10 -2 76 -18t87 -19q3 -5 19 -12q0 -8 -6 -14q5 2 25 2l144 -74q12 -1 20 1t8 0l-9 -8q54 -40 68 -40l18 -33h10q8 0 14 13l114 -222q0 -16 -3 -25q3 -19 24 -38q-3 -1 -7 -4
q5 -30 16 -74l-25 -177l-75 -220l-154 -174q1 -9 2 -14q-2 1 -6 1zM1544 331q0 -2 -1 -4q0 1 -1 7q2 -1 2 -3z" />
    <glyph glyph-name="Otilde" unicode="&#xd5;" horiz-adv-x="1820" 
d="M588 1503q-25 2 -47 -9q-10 4 -30 11q-35 48 -35 54q5 12 35 71l159 142q95 50 182 50q31 0 114 -29q28 -13 74 -44q76 -60 81 -63q16 0 45 21q45 21 130 85t112 80q16 3 33 7q14 -7 44 -17v-5q7 -8 18 -8q1 -3 -2 -13q7 -6 16 -14l-1 -39q-3 0 -18 -22q-28 -32 -91 -93
q-34 -24 -60 -54q-108 -81 -170 -83q-23 -7 -23 -8t3 -1q-13 0 -39 8l-38 13q-43 11 -115 77t-102 65q-4 -1 -51 -23t-61 -22zM1573 916q-1 52 -39 128t-71 77q-7 8 -103 60q-33 8 -87 28q-146 32 -204 32l-109 -15l-3 6l-116 -38q-4 9 -4 12t1 4l-19 -9q-13 -21 -26 -30
q-18 -8 -53 -15q-26 -12 -75 -60l-72 -69l-65 -167q-7 -4 -9 -36q-10 -8 -20 -11q-7 5 -16 16q-8 -11 -22 -33q-9 8 -28 25l-9 -13q-2 3 -2 10t1 13q-7 12 -21 28t-25 16h-1q-24 -22 -28 -33q4 -3 4 -9q-12 -12 -20 -37q-13 -5 -14 -5q4 -5 4 -19t-15 -44q-1 -9 -1 -14t1 -8
q-14 -42 -14 -49v-78q0 -22 14 -81q27 -50 83 -128q12 -10 30 -24t96 -52q79 -38 92 -39q13 0 16 5q13 -15 49 -16l133 -4h22q20 0 58 14q156 29 337 135t283 263q23 54 38 98t26 65l3 99v2zM1536 335h-10l-91 -86v-22q-1 3 -6 13h-19l-146 -129q-28 -3 -70 -29h-19v-4
q-75 -32 -81 -32t-9 3l-120 -58h-13q-25 0 -25 3l1 2l-163 -22h-83l-146 22q-52 18 -153 50q-62 33 -133 83q-150 108 -185 290q-5 22 -12 60t-7 60t1 51q-4 40 -3 59q1 37 52 204q52 168 178 268q62 50 122 77l107 47q79 81 112 92q155 127 461 148q12 -5 19 -17l13 4
q-1 2 -2 13h17q5 -7 5 -12q-9 0 -16 -6q36 -14 56 -14t32 4q-22 6 -63 17q28 12 39 10q10 -2 76 -18t87 -19q3 -5 19 -12q0 -8 -6 -14q5 2 25 2l144 -74q12 -1 20 1t8 0l-9 -8q54 -40 68 -40l18 -33h10q8 0 14 13l114 -222q0 -16 -3 -25q3 -19 24 -38q-3 -1 -7 -4
q5 -30 16 -74l-25 -177l-75 -220l-154 -174q1 -9 2 -14q-2 1 -6 1zM1544 331q0 -2 -1 -4q0 1 -1 7q2 -1 2 -3z" />
    <glyph glyph-name="Odieresis" unicode="&#xd6;" horiz-adv-x="1820" 
d="M1354 1734q16 -13 16 -48q-12 -26 -43 -84q6 1 12 9q12 -15 13 -18q-3 3 -33 5l4 -19q-12 0 -34 -1q-20 -15 -55 -19q-35 20 -118 49q-8 7 -8 30q-12 9 -29 24q0 35 1 43q7 11 21 38q87 35 166 41zM647 1662v20q14 24 51 81q-5 -1 -15 -7q-11 13 -13 16l34 -7l-2 19h37
q18 12 52 17q36 -23 117 -60q6 -7 6 -31q10 -7 26 -22q-4 -49 -5 -49v3q-8 -9 -24 -36q-86 -28 -169 -28l-81 55q-14 13 -14 29zM1573 916q-1 52 -39 128t-71 77q-7 8 -103 60q-33 8 -87 28q-146 32 -204 32l-109 -15l-3 6l-116 -38q-4 9 -4 12t1 4l-19 -9q-13 -21 -26 -30
q-18 -8 -53 -15q-26 -12 -75 -60l-72 -69l-65 -167q-7 -4 -9 -36q-10 -8 -20 -11q-7 5 -16 16q-8 -11 -22 -33q-9 8 -28 25l-9 -13q-2 3 -2 10t1 13q-7 12 -21 28t-25 16h-1q-24 -22 -28 -33q4 -3 4 -9q-12 -12 -20 -37q-13 -5 -14 -5q4 -5 4 -19t-15 -44q-1 -9 -1 -14t1 -8
q-14 -42 -14 -49v-78q0 -22 14 -81q27 -50 83 -128q12 -10 30 -24t96 -52q79 -38 92 -39q13 0 16 5q13 -15 49 -16l133 -4h22q20 0 58 14q156 29 337 135t283 263q23 54 38 98t26 65l3 99v2zM1536 335h-10l-91 -86v-22q-1 3 -6 13h-19l-146 -129q-28 -3 -70 -29h-19v-4
q-75 -32 -81 -32t-9 3l-120 -58h-13q-25 0 -25 3l1 2l-163 -22h-83l-146 22q-52 18 -153 50q-62 33 -133 83q-150 108 -185 290q-5 22 -12 60t-7 60t1 51q-4 40 -3 59q1 37 52 204q52 168 178 268q62 50 122 77l107 47q79 81 112 92q155 127 461 148q12 -5 19 -17l13 4
q-1 2 -2 13h17q5 -7 5 -12q-9 0 -16 -6q36 -14 56 -14t32 4q-22 6 -63 17q28 12 39 10q10 -2 76 -18t87 -19q3 -5 19 -12q0 -8 -6 -14q5 2 25 2l144 -74q12 -1 20 1t8 0l-9 -8q54 -40 68 -40l18 -33h10q8 0 14 13l114 -222q0 -16 -3 -25q3 -19 24 -38q-3 -1 -7 -4
q5 -30 16 -74l-25 -177l-75 -220l-154 -174q1 -9 2 -14q-2 1 -6 1zM1544 331q0 -2 -1 -4q0 1 -1 7q2 -1 2 -3z" />
    <glyph glyph-name="Oslash" unicode="&#xd8;" horiz-adv-x="2460" 
d="M2062 883q0 32 -16 159q-16 67 -60 119q-17 66 -59 83l-143 -92q-6 5 -12 5q-9 -14 -27 -35q-86 -57 -270 -201q-9 -2 -21 -8q-135 -108 -405 -317q-63 -67 -97 -87q-38 -40 -129 -116l-211 -217q51 -44 279 -80l129 -6h9q41 0 114 18q233 27 555 242q21 14 65 38
q144 128 202 210q97 135 97 285zM1251 1464q3 0 3 -3t-145 -47q-91 -16 -157 -56q-96 -34 -222 -140t-167 -211q-22 -39 -44 -91t-71 -320l-6 -94q6 0 13 -6l483 425l747 559q9 0 9 4q-1 6 -6 11l-226 61q-24 0 -75 -17q-9 -20 -35 -35q-8 -13 -21 -40h-80zM2645 1759
q0 -12 7 -47q-41 -17 -62 -40q13 -17 14 -17l-193 -103l-277 -178q65 -102 98 -168t39 -133q6 -24 6 -37v-76l21 -131q-2 -182 -59 -256q-39 -150 -100 -232q-133 -177 -349 -321q-136 -90 -385 -211q-25 -1 -139 -31t-164 -30q-51 0 -78 -6q-38 10 -67 10h-77l-192 47v-1
q-8 -3 -59 -9q-10 10 -23 10v16q-24 7 -75 25q-21 17 -117 96l-425 -399h-31l-16 11q-3 -5 -3 -11h-33l-13 13q10 5 21 16l-24 17q-9 0 -13 -6q-8 0 -27 15q-28 -14 -32 -15l4 27q-15 18 -15 23v11q0 56 -20 69v89l419 451v40l-20 121v159q2 0 9 43q0 80 24 212t31 158
q92 221 164 344q94 130 256 224q16 10 65 41q25 57 152 112q29 10 193 70l-7 17h3q12 0 58 10q0 -16 -12 -16q-2 1 -11 6l-3 -6l3 -4q59 0 59 4h-2q7 7 7 13t-3 11q14 -3 30 -3t37 5q-7 -3 41 -20q11 3 41 3q12 11 35 31l47 7q44 0 159 -31l119 -33q47 -12 125 -62l128 -80
h18q6 6 24 19q296 158 377 184q81 27 156 27l50 12q13 -1 31 -15t56 -75q-1 -4 -1 -16z" />
    <glyph glyph-name="Ugrave" unicode="&#xd9;" horiz-adv-x="1712" 
d="M1339 1406q0 -4 -14 -15q1 -9 8 -18q-6 -6 -17 -16l3 -31q-65 -17 -65 -25q3 -3 3 -9l-22 -1q-21 5 -132 37l-422 245q-57 33 -103 72t-65 45q-26 54 -27 68l4 19q-4 6 -4 11v7q0 16 11 39q21 42 78 42t95 -37q13 -4 38 -12l256 -175q137 -94 282 -129q8 -17 34 -31
q34 -50 34 -57v-8l25 -16v-5zM1468 1287q0 62 81 148l25 -3q9 10 23 16q15 -30 27 -43h26l33 -58q9 -49 9 -58v-86q0 4 -2 4t-33 -152q-152 -400 -320 -544q0 -12 -12 -27q-81 -73 -242 -222q-123 -91 -277 -177q-12 -7 -26 -23q-19 -7 -35 -31q-16 -2 -105 -31l-93 -10
q-56 -6 -56 -7t5 -1q-38 0 -154 51v5q-131 88 -210 211l-43 106q-24 61 -24 79v18l-34 213v103q0 45 47 279q55 162 62 176q48 101 139 151q9 -2 33 -12q4 -4 38 -26l43 -112q-12 -25 -26 -74q-68 -81 -93 -163q-11 -34 -27 -145l5 -190q40 -277 159 -315q53 -15 53 -17
t-1 -2l66 -8q16 3 68 13q358 72 703 488q50 61 138 216q6 16 34 100q6 29 6 58l-6 58q0 6 4 17q-8 15 -8 27z" />
    <glyph glyph-name="Uacute" unicode="&#xda;" horiz-adv-x="1712" 
d="M1354 1823q8 0 19 2q0 -9 18 -17q-8 -7 -26 -19q1 -4 5 -7q-19 -12 -51 -38q-64 -28 -274 -116t-362 -176q-33 -10 -94 -23q-3 3 -10 11h-58l-32 17l-52 -2q7 8 20 15l-10 6q-13 8 -13 27q9 21 10 21q23 11 39 28l281 126q170 83 432 181q10 3 10 10l48 15q14 -4 42 -11
v-19q13 -2 36 -12q14 -19 22 -19zM1468 1287q0 62 81 148l25 -3q9 10 23 16q15 -30 27 -43h26l33 -58q9 -49 9 -58v-86q0 4 -2 4t-33 -152q-152 -400 -320 -544q0 -12 -12 -27q-81 -73 -242 -222q-123 -91 -277 -177q-12 -7 -26 -23q-19 -7 -35 -31q-16 -2 -105 -31l-93 -10
q-56 -6 -56 -7t5 -1q-38 0 -154 51v5q-131 88 -210 211l-43 106q-24 61 -24 79v18l-34 213v103q0 45 47 279q55 162 62 176q48 101 139 151q9 -2 33 -12q4 -4 38 -26l43 -112q-12 -25 -26 -74q-68 -81 -93 -163q-11 -34 -27 -145l5 -190q40 -277 159 -315q53 -15 53 -17
t-1 -2l66 -8q16 3 68 13q358 72 703 488q50 61 138 216q6 16 34 100q6 29 6 58l-6 58q0 6 4 17q-8 15 -8 27z" />
    <glyph glyph-name="Ucircumflex" unicode="&#xdb;" horiz-adv-x="1712" 
d="M1304 1344q-24 0 -31 6q-8 -4 -24 -11q-23 23 -81 89t-223 194q-8 -4 -24 -4l-79 -74q0 -5 4 -12q-7 -4 -17 -11q3 -15 4 -16q-3 -1 -14 -4l-185 -223l-39 6q-27 -6 -34 -11q-4 4 -11 18l-16 -3q3 5 5 13q-11 8 -30 10l-41 87q2 23 29 71h13q10 0 20 7q11 8 59 62
t179 199q38 33 102 109q25 22 63 32q12 -3 37 -8q22 -17 59 -28q71 -58 187 -178t147 -148q15 -28 43 -82q-28 -36 -45 -74q-6 -2 -31 -14q5 0 5 -1q-7 -1 -31 -1zM1468 1287q0 62 81 148l25 -3q9 10 23 16q15 -30 27 -43h26l33 -58q9 -49 9 -58v-86q0 4 -2 4t-33 -152
q-152 -400 -320 -544q0 -12 -12 -27q-81 -73 -242 -222q-123 -91 -277 -177q-12 -7 -26 -23q-19 -7 -35 -31q-16 -2 -105 -31l-93 -10q-56 -6 -56 -7t5 -1q-38 0 -154 51v5q-131 88 -210 211l-43 106q-24 61 -24 79v18l-34 213v103q0 45 47 279q55 162 62 176
q48 101 139 151q9 -2 33 -12q4 -4 38 -26l43 -112q-12 -25 -26 -74q-68 -81 -93 -163q-11 -34 -27 -145l5 -190q40 -277 159 -315q53 -15 53 -17t-1 -2l66 -8q16 3 68 13q358 72 703 488q50 61 138 216q6 16 34 100q6 29 6 58l-6 58q0 6 4 17q-8 15 -8 27zM833 1505z
M833 1506h1l-1 -1v1z" />
    <glyph glyph-name="Udieresis" unicode="&#xdc;" horiz-adv-x="1712" 
d="M1274 1671q17 -14 17 -48q-13 -27 -44 -84q6 0 12 8q12 -13 13 -17q-3 4 -33 4l4 -18q-11 0 -34 -2q-19 -14 -54 -18q-35 20 -118 49q-9 7 -9 30q-12 8 -29 23q0 44 2 46v-2q7 11 20 38q88 35 167 41zM568 1598v21q14 25 50 82q-4 -2 -14 -8q-11 13 -13 15l33 -5l-2 18
h38q18 13 52 17q35 -23 116 -60q5 -7 5 -31q11 -8 27 -23q-3 -47 -4 -47v3q-8 -10 -25 -37q-85 -29 -168 -29l-81 56q-14 12 -14 28zM1468 1287q0 62 81 148l25 -3q9 10 23 16q15 -30 27 -43h26l33 -58q9 -49 9 -58v-86q0 4 -2 4t-33 -152q-152 -400 -320 -544
q0 -12 -12 -27q-81 -73 -242 -222q-123 -91 -277 -177q-12 -7 -26 -23q-19 -7 -35 -31q-16 -2 -105 -31l-93 -10q-56 -6 -56 -7t5 -1q-38 0 -154 51v5q-131 88 -210 211l-43 106q-24 61 -24 79v18l-34 213v103q0 45 47 279q55 162 62 176q48 101 139 151q9 -2 33 -12
q4 -4 38 -26l43 -112q-12 -25 -26 -74q-68 -81 -93 -163q-11 -34 -27 -145l5 -190q40 -277 159 -315q53 -15 53 -17t-1 -2l66 -8q16 3 68 13q358 72 703 488q50 61 138 216q6 16 34 100q6 29 6 58l-6 58q0 6 4 17q-8 15 -8 27z" />
    <glyph glyph-name="germandbls" unicode="&#xdf;" horiz-adv-x="1780" 
d="M360 -516q0 7 -10 9h-12q-24 -25 -39 -62q-12 4 -33 35q2 -3 2 -7t-10 -4h-12v3q0 8 -4 31q-13 20 -40 61l-81 815l-11 374l-40 623q-1 8 -1 17q0 76 46 175t118 151q261 114 422 141q49 16 118 20l251 14h3q26 0 126 -16q17 -9 53 -22q277 -203 305 -384q13 -80 15 -80
v-121q0 -54 -53 -124q-5 -9 -19 -15l10 -9q-15 -11 -28 -44q-4 6 -11 6q-24 -22 -24 -32q3 -3 7 -3t8 3q-5 -13 -22 -40q-30 -24 -30 -33t2 -11q-31 -29 -93 -79q-42 -65 -88 -141v-24q47 -43 123 -103t180 -149q78 -72 112 -123q34 -52 64 -156t30 -165q0 -129 -58 -249
t-153 -183q-15 -16 -47 -58q-242 -190 -381 -377q0 7 -10 14q-21 -20 -70 -50q-36 -31 -72 -82q-29 10 -33 20q-10 -10 -20 -14l-10 14l-19 -25q-10 5 -26 38q-13 13 -60 44v43l9 27q4 24 4 76q5 34 25 67q24 85 124 183q100 97 190 181t215 233q17 30 17 71q0 95 -55 157
q-20 23 -128 109t-173 131q-44 39 -118 124l-32 64q-16 33 -16 73q-1 40 25 102t69 168q59 95 123 168t113 129t49 96q0 92 -83 137l-4 27q-9 12 -24 17q-113 16 -145 16t-48 -21q-18 5 -55 10l-84 -20q-12 6 -18 6q2 0 2 -2t-162 -41q-4 -2 -26 -24h-6q-7 0 -19 -3
q-96 -40 -127 -105q-21 -42 -21 -78v-43l35 -1244q9 -39 9 -63t-1 -36q-12 -24 -12 -118l35 -128v-53q-2 -1 -32 -24t-30 -35z" />
    <glyph glyph-name="agrave" unicode="&#xe0;" 
d="M724 514q-29 0 -126 -39l-112 -45q-64 -37 -137 -107l-4 -12l59 -6q206 53 325 172q6 6 46 37h-51zM900 736q0 -4 -2 -9q13 -10 50 -84q9 2 20 2q43 0 85 -37q66 -108 127 -210t88 -189q-27 -33 -74 -90l-35 6q-4 -11 -16 -26q-14 6 -41 24q-2 -1 -5 -1q-29 0 -111 66
q-18 39 -90 137l-264 -198l10 -17q-9 -15 -87 -55q-219 -67 -219 -69q-154 0 -246 121q-44 117 -44 161t81 225q70 76 102 78q11 11 148 105q64 26 206 88q143 34 143 37l101 -7q9 0 13 1q60 -27 60 -59zM1069 1000q0 -9 -14 -18q1 -10 8 -19q-6 -6 -18 -17l3 -30
q-65 -17 -65 -24q3 -3 4 -10l-23 -2q-21 6 -132 38l-422 245q-57 33 -103 72t-66 45q-26 53 -27 69l5 18q-4 6 -4 12v8q0 16 10 38q23 41 79 41t94 -37q14 -4 39 -11l256 -176q137 -93 283 -129q8 -17 34 -31q33 -50 33 -64v-1l26 -16v-1z" />
    <glyph glyph-name="aacute" unicode="&#xe1;" 
d="M724 514q-29 0 -126 -39l-112 -45q-64 -37 -137 -107l-4 -12l59 -6q206 53 325 172q6 6 46 37h-51zM900 736q0 -4 -2 -9q13 -10 50 -84q9 2 20 2q43 0 85 -37q66 -108 127 -210t88 -189q-27 -33 -74 -90l-35 6q-4 -11 -16 -26q-14 6 -41 24q-2 -1 -5 -1q-29 0 -111 66
q-18 39 -90 137l-264 -198l10 -17q-9 -15 -87 -55q-219 -67 -219 -69q-154 0 -246 121q-44 117 -44 161t81 225q70 76 102 78q11 11 148 105q64 26 206 88q143 34 143 37l101 -7q9 0 13 1q60 -27 60 -59zM1035 1351q1 0 11 3q0 -13 17 -24q-7 -10 -25 -28q1 -5 5 -10
q-18 -18 -48 -54q-60 -40 -233 -152q-172 -112 -242 -166t-130 -107q-31 -15 -89 -33q-3 3 -10 14h-55l-31 26l-48 -4q6 13 17 22q-21 21 -21 49l10 30q22 16 36 40q69 48 268 184q162 120 410 263q10 5 10 15l46 21q13 -7 40 -15v-28q13 -3 34 -18q13 -28 28 -28z" />
    <glyph glyph-name="acircumflex" unicode="&#xe2;" 
d="M724 514q-29 0 -126 -39l-112 -45q-64 -37 -137 -107l-4 -12l59 -6q206 53 325 172q6 6 46 37h-51zM900 736q0 -4 -2 -9q13 -10 50 -84q9 2 20 2q43 0 85 -37q66 -108 127 -210t88 -189q-27 -33 -74 -90l-35 6q-4 -11 -16 -26q-14 6 -41 24q-2 -1 -5 -1q-29 0 -111 66
q-18 39 -90 137l-264 -198l10 -17q-9 -15 -87 -55q-219 -67 -219 -69q-154 0 -246 121q-44 117 -44 161t81 225q70 76 102 78q11 11 148 105q64 26 206 88q143 34 143 37l101 -7q9 0 13 1q60 -27 60 -59zM1013 873q-23 0 -31 6q-8 -4 -25 -11q-21 22 -79 88t-224 195
q-8 -4 -25 -4l-79 -74q1 -5 4 -12q-6 -4 -17 -11l4 -15h2q1 -1 -16 -5l-185 -223l-38 6q-27 -6 -35 -11q-2 4 -10 18l-16 -3q2 5 4 13q-11 8 -29 10l-41 87q2 23 28 71h13q10 0 20 7q11 7 59 61t179 200q39 33 103 109q24 22 63 32q12 -3 36 -8q22 -17 60 -28
q70 -59 186 -179t148 -147q14 -28 43 -82q-29 -36 -45 -74q-6 -2 -32 -14q6 0 6 -1q-8 -1 -31 -1z" />
    <glyph glyph-name="atilde" unicode="&#xe3;" 
d="M1234 1189q0 9 -21 -24q-33 -37 -107 -108q-40 -28 -71 -63q-124 -95 -198 -97q-26 -7 -26 -9t3 -1q-16 0 -46 10t-43 14q-51 13 -134 89t-119 76q-4 0 -59 -26t-71 -26l-190 -160q-16 1 -19 3q-19 -5 -35 -12q-12 4 -35 12q-41 56 -41 63q6 14 41 83q10 8 37 32l149 133
q111 58 211 58q36 0 133 -33q33 -16 87 -51q88 -70 94 -74q18 0 52 24q52 25 245 172q5 4 38 21q18 3 37 8q17 -8 50 -20v-7q9 -8 21 -8q2 -4 2 -6t-4 -10q9 -6 19 -16v-47zM724 514q-29 0 -126 -39l-112 -45q-63 -37 -136 -107l-5 -12l59 -6q206 53 325 172q6 6 46 37h-51z
M900 736q0 -4 -2 -9q13 -10 50 -84q9 2 20 2q43 0 85 -37q66 -108 127 -210t88 -189q-27 -33 -74 -90l-35 6q-4 -11 -16 -26q-14 6 -41 24q-2 -1 -5 -1q-29 0 -111 66q-18 39 -90 137l-264 -198l11 -17q-9 -15 -88 -55q-219 -67 -219 -69q-154 0 -246 121q-43 117 -43 161
t80 225q70 76 102 78q11 11 148 105q64 26 206 88q143 34 143 37l101 -7q9 0 13 1q60 -27 60 -59z" />
    <glyph glyph-name="adieresis" unicode="&#xe4;" 
d="M724 514q-29 0 -126 -39l-112 -45q-64 -37 -137 -107l-4 -12l59 -6q206 53 325 172q6 6 46 37h-51zM900 736q0 -4 -2 -9q13 -10 50 -84q9 2 20 2q43 0 85 -37q66 -108 127 -210t88 -189q-27 -33 -74 -90l-35 6q-4 -11 -16 -26q-14 6 -41 24q-2 -1 -5 -1q-29 0 -111 66
q-18 39 -90 137l-264 -198l10 -17q-9 -15 -87 -55q-219 -67 -219 -69q-154 0 -246 121q-44 117 -44 161t81 225q70 76 102 78q11 11 148 105q64 26 206 88q143 34 143 37l101 -7q9 0 13 1q60 -27 60 -59zM967 1060q16 -13 16 -48q-12 -26 -43 -84q6 1 12 9q12 -15 13 -18
q-3 3 -33 5l4 -18q-11 0 -34 -2q-19 -15 -54 -19q-35 21 -118 49q-9 7 -9 31q-11 8 -29 23q0 44 2 46v-3q7 11 21 38q86 35 166 41zM261 988v20q14 25 50 82q-4 -2 -14 -8q-11 13 -13 16l34 -6l-3 18h38q18 13 52 17q36 -23 116 -60q5 -7 5 -31q11 -7 27 -22q-4 -49 -5 -49
v3q-7 -9 -24 -36q-86 -28 -168 -28l-81 55q-14 13 -14 29z" />
    <glyph glyph-name="aring" unicode="&#xe5;" 
d="M724 514q-29 0 -126 -39l-112 -45q-64 -37 -137 -107l-4 -12l59 -6q206 53 325 172q6 6 46 37h-51zM900 736q0 -4 -2 -9q13 -10 50 -84q9 2 20 2q43 0 85 -37q66 -108 127 -210t88 -189q-27 -33 -74 -90l-35 6q-4 -11 -16 -26q-14 6 -41 24q-2 -1 -5 -1q-29 0 -111 66
q-18 39 -90 137l-264 -198l10 -17q-9 -15 -87 -55q-219 -67 -219 -69q-154 0 -246 121q-44 117 -44 161t81 225q70 76 102 78q11 11 148 105q64 26 206 88q143 34 143 37l101 -7q9 0 13 1q60 -27 60 -59zM446 1082q0 -33 99 -33q22 1 65 15t48 28q0 12 -5 27q-38 29 -115 28
t-59 -6q-33 -50 -33 -59zM635 804q-64 0 -79 -4t-17 -3q-12 0 -18 17q-78 0 -78 -5q-5 3 -5 5l-143 71q-24 29 -72 88q-47 123 -47 175t42 78q11 9 35 9q20 51 84 136q50 16 63 16h115q4 -9 75 -36q20 -17 78 -42l75 -82q105 -177 105 -218l-10 -97q-12 -18 -44 -52
q-26 -13 -81 -44q-78 -11 -78 -12z" />
    <glyph glyph-name="ae" unicode="&#xe6;" horiz-adv-x="1806" 
d="M409 287q12 0 176 63q22 25 64 67q0 5 -6 13h-18l-222 -98q-9 -16 -20 -45h26zM1206 917q-199 0 -201 -94q0 -9 3 -18l49 -7q3 3 141 29q80 15 122 60q-56 30 -114 30zM1161 1203q83 0 230 -43q31 -8 113 -81t82 -78q0 -17 17 -31q25 -32 25 -50t-4 -42q11 -26 11 -31
q-1 5 -9 13q-5 -4 -5 -11t7 -17l-38 -27q0 -8 7 -12q-61 -216 -439 -282q-18 -4 -24 -18q6 -3 6 -7q84 -47 95 -47h12q10 -7 102 -44q55 -10 134 -12q25 -15 105 -27t99 -16q27 -13 78 -39q0 -9 14 -29t14 -24t-2 -8q35 -23 35 -38v-36q-14 -23 -14 -41q-6 -6 -22 -6
q-10 -20 -10 -41l-33 5q-13 0 -19 -15l-90 -13q-18 0 -49 10q-14 0 -14 -14h-49l-41 9q-41 8 -56 8q-44 10 -143 24q-107 37 -175 58q-38 20 -97 59q-33 2 -97 17l-216 -206q-14 0 -32 -8q13 -12 14 -12q-12 1 -23 1q-66 0 -78 -42h-30q-23 0 -50 -10q-20 10 -27 10h-96
q-23 0 -47 41q-5 -1 -31 -6q-15 15 -16 15q-65 33 -126 103t-61 130q-15 24 -15 78t17 119q88 137 220 190q63 23 226 82q18 0 58 2q16 6 54 29q-30 46 -96 80t-128 34t-163 -36l-99 -36q-66 11 -76 11q-10 12 -31 20q-54 105 -54 127t24 82q145 125 438 125q52 0 141 -48
q30 -15 123 -67q4 3 7 10q49 105 177 136l49 9q9 0 23 -6l37 17l123 3h8z" />
    <glyph glyph-name="ccedilla" unicode="&#xe7;" horiz-adv-x="1239" 
d="M1185 280q0 -20 -2 -43q-20 -33 -79 -64t-68 -41q0 -47 -223 -90q-56 -31 -87 -31t-43 3q39 -48 39 -95q0 -15 -4 -27q10 -20 54 -50t50 -36q74 -67 125 -159q20 -105 25 -105q-2 -31 -32 -84q-60 -108 -163 -158q-54 -24 -194 -88q-14 -4 -18 -16h-211l4 6l-49 105l8 23
q-2 18 -2 54q17 89 132 119q58 24 165 96q-2 10 -37 15v13q-31 3 -85 32q-7 25 -14 33t-7 14q0 7 -12 27q-6 21 -6 81t45 177l-64 9l-31 -6l-72 20q-21 -3 -33 -3t-62 21t-64 26q-109 118 -109 220q-1 47 31 138t53 108q161 167 512 323q21 10 82 38q7 1 97 29t141 28l51 -4
q14 0 27 4l47 -135q-17 -34 -45 -63l3 -15q-9 -5 -287 -131q-7 -5 -42 -40q-83 -26 -177 -64t-137 -127q2 -4 2 -11q60 -38 169 -38l463 50l123 -30l9 -22q2 -16 2 -36z" />
    <glyph glyph-name="egrave" unicode="&#xe8;" horiz-adv-x="1201" 
d="M689 672q-2 3 -7 16q-78 -31 -104 -45q-74 -39 -100 -83q7 0 15 -7q139 53 196 119zM65 406q0 98 89 244t202 192q6 3 33 3q48 41 162 69t186 28t159 -49q-2 -4 -2 -24q19 -4 45 -11q0 -6 13 -20q0 -37 28 -96v-44q0 -8 -12 -20q7 -10 7 -27t-19 -45q-2 -14 -4 -40
q-23 -31 -58 -93l-217 -157q32 -19 176 -23l254 -6q17 -29 60 -63q-13 -18 -35 -60q-14 0 -21 6q-11 -4 -34 -18q22 -9 57 -29q-13 -4 -55 -42q-42 -15 -127 -34q-26 -16 -36 -45l-255 -32q-274 18 -437 124q-118 121 -148 277q-11 22 -11 35zM1035 1123q0 -9 -14 -18
q1 -10 8 -19q-6 -6 -18 -17l3 -30q-65 -17 -65 -24q3 -3 4 -10l-23 -2q-21 6 -132 38l-422 245q-57 33 -103 72t-66 45q-26 53 -27 69l5 18q-4 6 -4 12v8q0 16 10 38q23 41 79 41t94 -37q14 -4 39 -11l256 -176q137 -93 283 -129q8 -17 34 -31q33 -50 33 -64v-1l26 -16v-1z
" />
    <glyph glyph-name="eacute" unicode="&#xe9;" horiz-adv-x="1201" 
d="M689 672q-2 3 -7 16q-78 -31 -104 -45q-74 -39 -100 -83q7 0 15 -7q139 53 196 119zM65 406q0 98 89 244t202 192q6 3 33 3q48 41 162 69t186 28t159 -49q-2 -4 -2 -24q19 -4 45 -11q0 -6 13 -20q0 -37 28 -96v-44q0 -8 -12 -20q7 -10 7 -27t-19 -45q-2 -14 -4 -40
q-23 -31 -58 -93l-217 -157q32 -19 176 -23l254 -6q17 -29 60 -63q-13 -18 -35 -60q-14 0 -21 6q-11 -4 -34 -18q22 -9 57 -29q-13 -4 -55 -42q-42 -15 -127 -34q-26 -16 -36 -45l-255 -32q-274 18 -437 124q-118 121 -148 277q-11 22 -11 35zM972 1473q1 0 11 3
q0 -13 17 -24q-7 -10 -25 -28q1 -5 5 -10q-18 -18 -48 -54q-60 -40 -233 -152t-243 -166t-129 -107q-31 -15 -89 -33q-3 3 -10 14h-55l-31 26l-48 -4q6 13 17 22q-21 21 -21 49l10 30q22 16 36 40q69 48 268 184q162 120 410 263q10 5 10 15l46 21q13 -7 40 -15v-28
q13 -3 34 -18q13 -28 28 -28z" />
    <glyph glyph-name="ecircumflex" unicode="&#xea;" horiz-adv-x="1201" 
d="M689 672q-2 3 -7 16q-78 -31 -104 -45q-74 -39 -100 -83q7 0 15 -7q139 53 196 119zM65 406q0 98 89 244t202 192q6 3 33 3q48 41 162 69t186 28t159 -49q-2 -4 -2 -24q19 -4 45 -11q0 -6 13 -20q0 -37 28 -96v-44q0 -8 -12 -20q7 -10 7 -27t-19 -45q-2 -14 -4 -40
q-23 -31 -58 -93l-217 -157q32 -19 176 -23l254 -6q17 -29 60 -63q-13 -18 -35 -60q-14 0 -21 6q-11 -4 -34 -18q22 -9 57 -29q-13 -4 -55 -42q-42 -15 -127 -34q-26 -16 -36 -45l-255 -32q-274 18 -437 124q-118 121 -148 277q-11 22 -11 35zM1006 1008q-23 0 -31 6
q-8 -4 -25 -11q-22 23 -80 89t-223 194q-8 -4 -25 -4l-79 -74q1 -5 4 -12q-6 -4 -17 -11l4 -15h2q1 -1 -16 -5l-185 -223l-38 6q-27 -6 -35 -11q-2 4 -10 18l-16 -3q2 5 4 13q-11 8 -29 10l-41 87q2 23 28 71h12q10 0 21 7q11 8 59 62t179 199q39 33 103 109q24 22 63 32
q12 -3 36 -8q22 -17 60 -28q70 -58 186 -178t148 -148q14 -28 43 -82q-29 -36 -45 -74q-6 -2 -32 -14q6 0 6 -1q-8 -1 -31 -1z" />
    <glyph glyph-name="edieresis" unicode="&#xeb;" horiz-adv-x="1201" 
d="M689 672q-2 3 -7 16q-78 -31 -104 -45q-74 -39 -100 -83q7 0 15 -7q139 53 196 119zM65 406q0 98 89 244t202 192q6 3 33 3q48 41 162 69t186 28t159 -49q-2 -4 -2 -24q19 -4 45 -11q0 -6 13 -20q0 -37 28 -96v-44q0 -8 -12 -20q7 -10 7 -27t-19 -45q-2 -14 -4 -40
q-23 -31 -58 -93l-217 -157q32 -19 176 -23l254 -6q17 -29 60 -63q-13 -18 -35 -60q-14 0 -21 6q-11 -4 -34 -18q22 -9 57 -29q-13 -4 -55 -42q-42 -15 -127 -34q-26 -16 -36 -45l-255 -32q-274 18 -437 124q-118 121 -148 277q-11 22 -11 35zM962 1209q16 -13 16 -48
q-12 -26 -43 -84q6 1 12 9q12 -15 13 -18q-3 3 -33 5l4 -18q-11 0 -34 -2q-19 -15 -54 -19q-35 21 -118 49q-9 7 -9 31q-11 8 -29 23q0 44 2 46v-3q7 11 21 38q86 35 166 41zM256 1136v21q14 25 50 82q-4 -2 -14 -8q-11 13 -13 16l34 -6l-3 18h38q18 13 52 17
q36 -23 116 -60q5 -7 5 -31q11 -7 27 -22q-4 -49 -5 -49v3q-7 -9 -24 -36q-86 -28 -168 -28l-81 55q-14 12 -14 28z" />
    <glyph glyph-name="igrave" unicode="&#xec;" horiz-adv-x="924" 
d="M525 199v-103l-31 -74l-22 5q-9 -7 -21 -15q-8 3 -20 10q-10 -3 -21 -10q-8 6 -84 25q-36 59 -63 203q-5 25 -5 51t1 41l6 179l25 119q28 25 36 52l54 12q12 0 33 -14q30 -35 90 -100q32 -58 32 -103l-3 -137q-7 -54 -7 -141zM881 841q0 -9 -14 -18q1 -10 8 -19
q-6 -6 -18 -17l3 -30q-65 -17 -65 -24q3 -3 4 -10l-23 -2q-21 6 -132 38l-422 245q-57 33 -103 72t-66 45q-26 53 -27 69l5 18q-4 6 -4 12v8q0 16 10 38q23 41 79 41t94 -37q14 -4 39 -11l256 -176q137 -93 283 -129q8 -17 34 -31q33 -50 33 -64v-1l26 -16v-1z" />
    <glyph glyph-name="iacute" unicode="&#xed;" horiz-adv-x="1020" 
d="M663 199v-103l-31 -74l-22 5q-9 -7 -21 -15q-8 3 -20 10q-10 -3 -21 -10q-8 6 -84 25q-36 59 -63 203q-5 25 -5 51t1 41l6 179l25 119q28 25 36 52l54 12q12 0 33 -14q30 -35 90 -100q32 -58 32 -103l-3 -137q-7 -54 -7 -141zM931 1203q1 0 11 3q0 -13 17 -24
q-7 -10 -25 -28q1 -5 5 -10q-18 -18 -48 -54q-60 -40 -233 -152q-172 -112 -242 -166t-130 -107q-31 -15 -89 -33q-3 3 -10 14h-55l-31 26l-48 -4q6 13 17 22q-21 21 -21 49l10 30q22 16 36 40q69 48 268 184q162 120 410 263q10 5 10 15l46 21q13 -7 40 -15v-28
q13 -3 34 -18q13 -28 28 -28z" />
    <glyph glyph-name="icircumflex" unicode="&#xee;" horiz-adv-x="1014" 
d="M620 199v-103l-31 -74l-22 5q-9 -7 -21 -15q-8 3 -20 10q-10 -3 -21 -10q-8 6 -84 25q-36 59 -63 203q-5 25 -5 51t1 41l6 179l25 119q28 25 36 52l54 12q12 0 33 -14q30 -35 90 -100q32 -58 32 -103l-3 -137q-7 -54 -7 -141zM873 648q-23 0 -31 6q-8 -4 -25 -11
q-21 23 -79 89t-224 194q-8 -4 -25 -4l-79 -74q1 -5 4 -12q-6 -4 -17 -11l4 -15h2q1 -1 -16 -5l-185 -223l-38 6q-27 -6 -35 -11q-2 4 -10 18l-16 -3q2 5 4 13q-11 8 -29 10l-41 87q2 23 28 71h13q10 0 20 7q11 8 59 62t179 199q39 33 103 109q24 22 63 32q12 -3 36 -8
q22 -17 60 -28q70 -58 186 -178t148 -148q14 -28 43 -82q-29 -36 -45 -74q-6 -2 -32 -14q6 0 6 -1q-8 -1 -31 -1z" />
    <glyph glyph-name="idieresis" unicode="&#xef;" horiz-adv-x="806" 
d="M502 185v-103l-31 -74l-22 5q-9 -7 -21 -15q-8 3 -20 10q-10 -3 -21 -10q-8 6 -84 25q-36 59 -63 203q-5 25 -5 51t1 41l6 179l25 119q28 25 36 52l54 12q12 0 33 -14q30 -35 90 -100q32 -58 32 -103l-3 -137q-7 -54 -7 -141zM739 918q16 -13 16 -48q-12 -26 -43 -84
q6 1 12 9q12 -15 13 -18q-3 3 -33 5l4 -18q-11 0 -34 -2q-19 -15 -54 -19q-35 21 -118 49q-9 7 -9 31q-11 8 -29 23q0 44 2 46v-3q7 11 21 38q86 35 166 41zM33 846v20q14 25 50 82q-4 -2 -14 -8q-11 13 -13 16l34 -6l-3 18h38q18 13 52 17q36 -23 116 -60q5 -7 5 -31
q11 -7 27 -22q-4 -49 -5 -49v3q-7 -9 -24 -36q-86 -28 -168 -28l-81 55q-14 13 -14 29z" />
    <glyph glyph-name="ntilde" unicode="&#xf1;" horiz-adv-x="1172" 
d="M1156 1308q0 1 -2 1t-17 -23q-29 -33 -94 -96q-36 -25 -64 -56q-111 -84 -176 -87q-23 -6 -23 -8q-14 1 -39 9q-25 9 -38 12q-45 11 -119 79t-106 68q-3 0 -52 -23t-63 -23l-169 -142q-14 0 -18 2q-16 -5 -31 -12q-10 5 -31 12q-36 50 -36 56q5 12 36 73q9 8 33 30
l132 117q99 53 189 53q31 0 118 -30q28 -14 77 -46q78 -62 84 -65q16 0 46 21q46 22 218 153q5 3 34 19q16 2 33 6q15 -6 44 -17v-6q8 -8 20 -8q2 -4 -3 -13q8 -6 17 -14v-42zM975 -65q-7 0 -23 16h-13l-18 -6q-23 18 -71 59q-12 33 -33 99l-2 106l19 289v75q-5 8 -15 19
q-95 -43 -136 -68l-204 -217q-124 -133 -190 -254q-29 -16 -51 -16t-52 12l-10 -16q-7 1 -35 6v26l-29 18q-5 0 -29 -13q-11 20 -23 67q-4 62 -7 78v2l17 128q4 42 14 94q10 53 25 143t63 215l54 24q14 -2 42 -10q0 -20 23 -41t27 -26q9 -38 27 -62q5 -26 20 -90
q171 100 233 186q18 6 57 41q84 49 170 95q49 16 71 16t99 -52q65 -100 111 -309l-6 -165l-31 -330l-41 -116q-12 -5 -37 -23h-16z" />
    <glyph glyph-name="ograve" unicode="&#xf2;" horiz-adv-x="1337" 
d="M792 731h-17l-110 -4l-246 -47l-11 -17v-36q0 -11 9 -31q-3 -6 -20 -21q9 -21 11 -24q-19 -15 -31 -20q-1 -1 -29 -51t-28 -58t5 -27q31 -35 101 -65t123 -29q118 22 139 22l162 64q118 47 162 89t45 73v26q-80 131 -148 131l-14 -5h-12q-18 30 -91 30zM500 -27l-41 9
q-14 0 -148 38q-56 33 -156 119q-14 29 -48 87q-33 119 -33 184l9 94v148q25 67 44 149q20 53 154 138q22 7 71 20q13 7 33 18q4 -4 12 -4l58 18q57 19 100 19h193q32 0 54 -8t23 -7q71 0 275 -130v-20q34 -32 90 -65q20 -23 85 -164q13 -72 13 -140t-46 -122q-2 -9 -12 -40
q-37 -46 -108 -130q-111 -72 -208 -133q-228 -78 -347 -78h-67zM1098 1193q0 -9 -14 -18q1 -10 8 -19q-6 -6 -18 -17l3 -30q-65 -17 -65 -24q3 -3 4 -10l-23 -2q-21 6 -132 38l-422 245q-57 33 -103 72t-66 45q-26 53 -27 69l5 18q-4 6 -4 12v8q0 16 10 38q22 41 78 41
t95 -37q14 -4 39 -11l256 -176q137 -93 283 -129q8 -17 34 -31q33 -50 33 -64v-1l26 -16v-1z" />
    <glyph glyph-name="oacute" unicode="&#xf3;" horiz-adv-x="1337" 
d="M792 731h-17l-110 -4l-246 -47l-11 -17v-36q0 -11 9 -31q-3 -6 -20 -21q9 -21 11 -24q-19 -15 -31 -20q-1 -1 -29 -51t-28 -58t5 -27q31 -35 101 -65t123 -29q118 22 139 22l162 64q118 47 162 89t45 73v26q-80 131 -148 131l-14 -5h-12q-18 30 -91 30zM500 -27l-41 9
q-14 0 -148 38q-56 33 -156 119q-14 29 -48 87q-33 119 -33 184l9 94v148q25 67 44 149q20 53 154 138q22 7 71 20q13 7 33 18q4 -4 12 -4l58 18q57 19 100 19h193q32 0 54 -8t23 -7q71 0 275 -130v-20q34 -32 90 -65q20 -23 85 -164q13 -72 13 -140t-46 -122q-2 -9 -12 -40
q-37 -46 -108 -130q-111 -72 -208 -133q-228 -78 -347 -78h-67zM1001 1627q1 0 11 3q0 -13 17 -24q-7 -10 -25 -28q1 -5 5 -10q-18 -18 -48 -54q-60 -40 -233 -152q-172 -112 -242 -166t-130 -107q-31 -15 -89 -33q-3 3 -10 14h-55l-31 26l-48 -4q6 13 17 22q-21 21 -21 49
l10 30q22 16 36 40q69 48 268 184q162 120 410 263q10 5 10 15l46 21q13 -7 40 -15v-28q13 -3 34 -18q13 -28 28 -28z" />
    <glyph glyph-name="ocircumflex" unicode="&#xf4;" horiz-adv-x="1337" 
d="M792 731h-17l-110 -4l-246 -47l-11 -17v-36q0 -11 9 -31q-3 -6 -20 -21q9 -21 11 -24q-19 -15 -31 -20q-1 -1 -29 -51t-28 -58t5 -27q31 -35 101 -65t123 -29q118 22 139 22l162 64q118 47 162 89t45 73v26q-80 131 -148 131l-14 -5h-12q-18 30 -91 30zM500 -27l-41 9
q-14 0 -148 38q-56 33 -156 119q-14 29 -48 87q-33 119 -33 184l9 94v148q25 67 44 149q20 53 154 138q22 7 71 20q13 7 33 18q4 -4 12 -4l58 18q57 19 100 19h193q32 0 54 -8t23 -7q71 0 275 -130v-20q34 -32 90 -65q20 -23 85 -164q13 -72 13 -140t-46 -122q-2 -9 -12 -40
q-37 -46 -108 -130q-111 -72 -208 -133q-228 -78 -347 -78h-67zM1041 1107q-23 0 -31 6q-8 -4 -25 -11q-21 22 -79 88t-224 195q-8 -4 -25 -4l-79 -74q1 -5 4 -12q-6 -4 -17 -11l4 -15h2q1 -1 -16 -5l-185 -223l-38 6q-27 -6 -35 -11q-2 4 -10 18l-16 -3q2 5 4 13
q-11 8 -29 10l-41 87q2 23 28 71h13q10 0 20 7q11 7 59 61t179 200q39 33 103 109q24 22 63 32q12 -3 36 -8q22 -17 60 -28q70 -59 186 -179t148 -147q14 -28 43 -82q-29 -36 -45 -74q-6 -2 -32 -14q6 0 6 -1q-8 -1 -31 -1z" />
    <glyph glyph-name="otilde" unicode="&#xf5;" horiz-adv-x="1337" 
d="M857 1096q0 -1 3 -1q-16 0 -46 10t-45 14q-51 13 -135 90t-122 77q-2 0 -58 -26t-73 -26l-193 -163q-16 2 -19 3q-19 -5 -36 -13q-11 5 -36 13q-40 57 -40 64q6 14 40 83q11 10 39 34l150 134q113 59 215 59q36 0 133 -33q34 -17 89 -53q89 -70 96 -74q18 0 52 25
q53 24 153 101t133 94q19 3 39 8q17 -8 50 -20l1 -7q9 -9 21 -9q2 -2 2 -5t-4 -10q9 -7 19 -17l-1 -47q0 5 -28 -29t-101 -105q-40 -28 -72 -64q-126 -96 -200 -99q-26 -7 -26 -8zM792 731h-17l-110 -4l-246 -47l-11 -17v-36q0 -11 9 -31q-3 -6 -20 -21q9 -21 11 -24
q-19 -15 -31 -20q-1 -1 -29 -51t-28 -58t5 -27q31 -35 101 -65t123 -29q118 22 139 22l162 64q119 47 164 89t45 73v26q-82 131 -150 131l-14 -5h-12q-18 30 -91 30zM500 -27l-41 9q-14 0 -148 38q-56 33 -156 119q-14 29 -48 87q-33 119 -33 184l9 94v148q25 67 44 149
q20 53 154 138q22 7 71 20q13 7 33 18q4 -4 12 -4l58 18q57 19 100 19h193q32 0 54 -8t23 -7q71 0 275 -130v-20q34 -32 90 -65q20 -23 86 -164q13 -72 13 -140t-45 -122q-2 -9 -12 -40q-37 -46 -110 -130q-111 -72 -208 -133q-228 -78 -347 -78h-67z" />
    <glyph glyph-name="odieresis" unicode="&#xf6;" horiz-adv-x="1337" 
d="M792 731h-17l-110 -4l-246 -47l-11 -17v-36q0 -11 9 -31q-3 -6 -20 -21q9 -21 11 -24q-19 -15 -31 -20q-1 -1 -29 -51t-28 -58t5 -27q31 -35 101 -65t123 -29q118 22 139 22l162 64q118 47 162 89t45 73v26q-80 131 -148 131l-14 -5h-12q-18 30 -91 30zM500 -27l-41 9
q-14 0 -148 38q-56 33 -156 119q-14 29 -48 87q-33 119 -33 184l9 94v148q25 67 44 149q20 53 154 138q22 7 71 20q13 7 33 18q4 -4 12 -4l58 18q57 19 100 19h193q32 0 54 -8t23 -7q71 0 275 -130v-20q34 -32 90 -65q20 -23 85 -164q13 -72 13 -140t-46 -122q-2 -9 -12 -40
q-37 -46 -108 -130q-111 -72 -208 -133q-228 -78 -347 -78h-67zM977 1287q16 -13 16 -48q-12 -26 -43 -84q6 1 12 9q12 -15 13 -18q-3 3 -33 5l4 -18q-11 0 -34 -2q-19 -15 -54 -19q-35 21 -118 49q-9 7 -9 31q-11 8 -29 23q0 44 2 46v-3q7 11 21 38q86 35 166 41zM271 1214
v21q14 25 50 82q-4 -2 -14 -8q-11 13 -13 16l34 -6l-3 18h38q18 13 52 17q36 -23 116 -60q5 -7 5 -31q11 -7 27 -22q-4 -49 -5 -49v3q-7 -9 -24 -36q-86 -28 -168 -28l-81 55q-14 12 -14 28z" />
    <glyph glyph-name="divide" unicode="&#xf7;" horiz-adv-x="2116" 
d="M65 366v-1q-2 4 -12 14q12 -6 12 -13zM1122 0l-31 -4q-8 -16 -24 -27q-72 0 -94 -4q-9 13 -21 46l-20 -5q-13 27 -41 77v64q12 8 39 46q0 9 -11 20q18 31 60 88q11 35 51 46q17 5 61 18q74 -25 115 -105l27 -121q-7 -42 -111 -139zM1129 874q0 -2 1 -2h-81q-11 8 -35 62
q-8 0 -28 -4l-25 71v35q12 0 20 9q-4 0 -20 15q7 0 12 -3q24 47 72 144q22 13 66 44q34 -4 92 -29q51 -42 51 -102q0 -18 -5 -39q8 -20 8 -30v-34q-14 -14 -18 -20q1 -27 -25 -59t-51 -31q-34 -25 -34 -27zM381 417q-14 0 -72 -22v-25h-5q-18 0 -30 21q-24 -24 -30 -24h-136
l-3 -4l14 -16h26q-20 -10 -34 -10t-23 3q11 27 26 39q-6 12 -24 12q4 15 4 48l-45 30q-22 14 -22 22t41 56v2q0 8 -15 22v27q0 14 32 51t45 47q32 0 92 13l48 -11q33 0 72 4l715 58q27 3 86 10l321 3l47 11h56l367 61q5 -3 20 -13h29q-2 0 -2 -2t34 -21l33 -80v-117
q-15 -8 -45 -25q2 -4 2 -22q-69 -8 -119 -23q-32 -28 -51 -28l-314 -5l-896 -83l-47 4l-45 -3q-45 -3 -63 -3q-53 -11 -53 -12v-2q-22 7 -36 7zM417 410h2h-2z" />
    <glyph glyph-name="oslash" unicode="&#xf8;" horiz-adv-x="1867" 
d="M455 608v-10l492 536h-28t-23 -8q-40 -17 -112 -27l-73 -50q-5 -4 -10 -7q-15 -22 -42 -56q-18 -9 -49 -36q-29 -51 -92 -164t-63 -178zM809 294q36 0 84 25q53 6 297 141l123 123q38 39 101 154q20 39 32 95t11 61q0 5 -8 24q2 7 2 27q-1 20 -27 50t-53 30t-60 -23v-13
q1 0 1 -3t-10 -8q-42 -53 -130 -114q0 -14 -56 -67h-20q-13 -42 -58 -87l-122 -123v-21q-12 -14 -35 -25q-13 -29 -40 -36q-7 -30 -27 -54t-54 -64q-13 -26 -44 -69q57 -23 93 -23zM1039 -33q-9 0 -23 15q-23 -9 -59 -24q4 -3 18 -3q-9 0 -14 -6q18 -2 47 -11q-73 0 -81 -2
l-71 -17l-332 116q-18 -21 -59 -77q-10 -30 -51 -67q-2 -5 -31 -86q0 -13 -16 -13l-99 -238l-16 -17l-21 20q-16 -16 -40 -47q-13 27 -23 38h-33q-8 -9 -27 -21q-16 14 -53 34l-41 110q-8 -16 -20 -16q-5 17 -5 58t20 68q-6 21 -6 33t20 45q44 136 118 265q73 129 73 142
l-81 127q-79 124 -79 244q0 38 43 215q120 237 248 354q30 16 59 49q36 31 248 150q6 1 103 50t205 49t318 -77h18q74 53 168 142l37 18q1 15 81 69t106 54h102l115 -125l16 -51q0 -20 -37 -57t-42 -48q-112 -44 -235 -163q48 -101 127 -136l58 -301l-31 -215l-112 -201
q-31 -75 -132 -158t-173 -138q-5 0 -11 4l-291 -154h-3z" />
    <glyph glyph-name="ugrave" unicode="&#xf9;" horiz-adv-x="1147" 
d="M498 -33q-230 0 -397 351q-17 92 -17 138t21 130q63 46 82 46h1q124 -61 128 -182q1 -51 63 -129q69 -33 73 -36h34q14 4 85 26q102 67 140 101q75 68 86 137q13 43 55 173t74 167l31 -4h31q5 -11 26 -29q20 -35 62 -101q3 -12 3 -27l-4 -51q0 -17 8 -30
q-12 -61 -48 -217q-17 -68 -85 -184q-72 -100 -108 -136q-74 -75 -146 -90q-28 -9 -86 -36q-94 -17 -112 -17zM1008 1094q0 -9 -14 -18q1 -10 8 -19q-6 -6 -18 -17l3 -30q-65 -17 -65 -24q3 -3 4 -10l-23 -2q-21 6 -132 38l-422 245q-57 33 -103 72t-66 45q-26 53 -27 69
l5 18q-4 6 -4 12v8q0 16 10 38q22 41 78 41t95 -37q14 -4 39 -11l256 -176q137 -93 283 -129q8 -17 34 -31q33 -50 33 -64v-1l26 -16v-1z" />
    <glyph glyph-name="uacute" unicode="&#xfa;" horiz-adv-x="1147" 
d="M498 -33q-230 0 -397 351q-17 92 -17 138t21 130q63 46 82 46h1q124 -61 128 -182q1 -51 63 -129q69 -33 73 -36h34q14 4 85 26q102 67 140 101q75 68 86 137q13 43 55 173t74 167l31 -4h31q5 -11 26 -29q20 -35 62 -101q3 -12 3 -27l-4 -51q0 -17 8 -30
q-12 -61 -48 -217q-17 -68 -85 -184q-72 -100 -108 -136q-74 -75 -146 -90q-28 -9 -86 -36q-94 -17 -112 -17zM960 1318q1 0 11 3q0 -13 17 -24q-7 -10 -25 -28q1 -5 5 -10q-18 -18 -48 -54q-60 -41 -233 -153t-243 -166t-129 -106q-31 -15 -89 -33q-3 3 -10 14h-55l-31 26
l-48 -4q6 13 17 22q-21 21 -21 49l10 30q22 16 36 40q69 48 268 184q162 120 410 263q10 5 10 15l46 21q13 -7 40 -15v-28q13 -3 34 -18q13 -28 28 -28z" />
    <glyph glyph-name="ucircumflex" unicode="&#xfb;" horiz-adv-x="1147" 
d="M498 -33q-230 0 -397 351q-17 92 -17 138t21 130q63 46 82 46h1q124 -61 128 -182q1 -51 63 -129q69 -33 73 -36h34q14 4 85 26q102 67 140 101q75 68 86 137q13 43 55 173t74 167l31 -4h31q5 -11 26 -29q20 -35 62 -101q3 -12 3 -27l-4 -51q0 -17 8 -30
q-12 -61 -48 -217q-17 -68 -85 -184q-72 -100 -108 -136q-74 -75 -146 -90q-28 -9 -86 -36q-94 -17 -112 -17zM922 986q-23 0 -31 6q-8 -4 -25 -11q-22 23 -80 89t-223 194q-8 -4 -25 -4l-79 -74q1 -5 4 -12q-6 -4 -17 -11l4 -15h2q1 -1 -16 -5l-185 -223l-38 6
q-27 -6 -35 -11q-2 4 -10 18l-16 -3q2 5 4 13q-11 8 -29 10l-41 87q2 23 28 71h12q10 0 21 7q11 8 59 62t179 199q39 33 103 109q24 22 63 32q12 -3 36 -8q22 -17 60 -28q70 -58 186 -178t148 -148q14 -28 43 -82q-29 -36 -45 -74q-6 -2 -32 -14q6 0 6 -1q-8 -1 -31 -1z" />
    <glyph glyph-name="udieresis" unicode="&#xfc;" horiz-adv-x="1147" 
d="M498 -33q-230 0 -397 351q-17 92 -17 138t21 130q63 46 82 46h1q124 -61 128 -182q1 -51 63 -129q69 -33 73 -36h34q14 4 85 26q102 67 140 101q75 68 86 137q13 43 55 173t74 167l31 -4h31q5 -11 26 -29q20 -35 62 -101q3 -12 3 -27l-4 -51q0 -17 8 -30
q-12 -61 -48 -217q-17 -68 -85 -184q-72 -100 -108 -136q-74 -75 -146 -90q-28 -9 -86 -36q-94 -17 -112 -17zM850 1088q16 -13 16 -48q-12 -26 -43 -84q6 1 12 9q12 -15 13 -18q-3 3 -33 5l4 -18q-11 0 -34 -2q-19 -15 -54 -19q-35 21 -118 49q-9 7 -9 31q-11 8 -29 23
q0 44 2 46v-3q7 11 21 38q86 35 166 41zM144 1016v20q14 25 50 82q-4 -2 -14 -8q-11 13 -13 16l34 -6l-3 18h38q18 13 52 17q36 -23 116 -60q5 -7 5 -31q11 -7 27 -22q-4 -49 -5 -49v3q-7 -9 -24 -36q-86 -28 -168 -28l-81 55q-14 13 -14 29z" />
    <glyph glyph-name="ydieresis" unicode="&#xff;" horiz-adv-x="1062" 
d="M1016 496q0 -123 -115 -502q-17 -56 -165 -464q4 -6 13 -6h-14l-93 -222l-105 -329q-8 -5 -56 -56q-7 0 -34 -8l-26 -9q-4 1 -25 7q-31 33 -96 104q-22 83 -28 152l29 146l97 282l188 448q-3 9 -8 21q-108 -33 -154 -33q-164 0 -264 213q-81 171 -81 356q0 47 22 108
q18 21 57 58h14q49 0 96 -76q20 -32 31 -84q50 -237 86 -237q81 -1 213 109t209 208q16 1 40 20q21 -6 54 -6q15 -18 51 -62q9 -2 21 -7q43 -54 43 -131zM918 1097q16 -13 16 -48q-12 -26 -43 -84q6 1 12 9q12 -15 13 -18q-3 3 -33 5l4 -18q-11 0 -34 -2q-19 -15 -54 -19
q-35 21 -118 49q-9 7 -9 31q-11 8 -29 23q0 44 2 46v-3q7 11 21 38q86 35 166 41zM212 1024v21q14 25 50 82q-4 -2 -14 -8q-11 13 -13 16l34 -6l-3 18h38q18 13 52 17q36 -23 116 -60q5 -7 5 -31q11 -7 27 -22q-4 -49 -5 -49v3q-7 -9 -24 -36q-86 -28 -168 -28l-81 55
q-14 12 -14 28z" />
    <glyph glyph-name="dotlessi" unicode="&#x131;" horiz-adv-x="434" 
d="M395 477v-122q-10 0 -10 -156v-103l-31 -74l-22 5q-9 -7 -21 -15q-8 3 -20 10q-10 -3 -21 -10q-8 6 -84 25q-36 59 -63 203q-5 25 -5 51t1 41l6 179l25 119q28 25 36 52l54 12q12 0 33 -14q30 -35 90 -100q32 -58 32 -103z" />
    <glyph glyph-name="OE" unicode="&#x152;" horiz-adv-x="3518" 
d="M3419 1712l27 -20q-2 -25 -16 -74q4 -7 9 -14l-67 -43q-8 2 -14 2t-10 -2q-2 -10 -9 -30q-22 -1 -54 -12q-31 15 -51 15h-25l-133 19h-76q-47 0 -92 17q-15 -7 -50 -7t-73 17q-15 -10 -37 -10l-94 -11l-176 26l-467 11h-3q-39 0 -51 -24q-6 -2 -22 -2l-4 -17
q116 -109 230 -220t114 -186v-215l8 -8l536 55l220 14q33 2 45 2q211 0 337 -127q7 -36 7 -64q0 -93 -87 -93h-113l-172 -21h-58l-577 -90l-5 8l-256 -22q-8 -10 -33 -44t-25 -38t1 -8q-5 7 -13 -3q1 -3 1 -9t-1 -11l-128 -152q11 -1 37 -7l240 33q15 -9 33 -9l536 61h61
l266 20l123 -11l6 4l144 -6l61 -13q23 -20 74 -46l57 -125q-10 -28 -36 -93q-2 -7 -48 -25t-68 -18l-371 -25q0 13 4 17q-3 5 -27 5q-7 -7 1 -15q-11 2 -59 15q-55 -15 -64 -20q-10 2 -46 9q-9 -14 -74 -27q-11 10 -29 10q-25 -14 -37 -14t-33 4l-105 -21q-31 7 -77 0
l-82 -10q-22 0 -28 10l-136 -35q-6 -3 -6 -20h-112q-5 0 -16 -8q-27 -3 -72 -3l-27 -18h-208q4 5 4 9t-2 6l-53 4q-3 24 -35 37q-17 14 -70 123q-23 -16 -66 -45q-30 -6 -54 -20l-54 -32q-71 -8 -149 -61q-26 0 -80 -10q8 -5 22 -5l-214 -16l-320 15q-5 6 -36 26q0 3 6 11
q-14 7 -29 12l-166 48q-367 191 -475 498q-8 20 -37 103q0 27 -12 82l17 199q0 -6 1 -6q5 8 14 46t27 91q103 300 475 550q71 58 224 142l234 128q46 -14 100 -14t76 1l686 22l791 -22l464 -5l22 5q0 -2 135 -23q26 -13 77 -41q53 -53 53 -67t-1 -19zM2936 62q0 -1 -2 -1
t-4 1q0 1 3 0q3 1 3 0z" />
    <glyph glyph-name="oe" unicode="&#x153;" horiz-adv-x="2210" 
d="M1075 623q0 139 -125 192l-78 6q-4 11 -28 11t-74 -21q-32 10 -40 10t-136 -53q-36 -22 -106 -66q-143 -110 -143 -220t164 -186q107 -28 151 -28t175 70q130 70 201 158q39 84 39 127zM1503 709l111 6l74 20l6 -6l159 28q-6 13 -67 52q-60 11 -65 12q-77 0 -107 -24
q-54 -2 -119 -73q0 -15 8 -15zM806 1063q13 0 26 -1l132 -4q39 -1 84 -26t103 -59q26 -25 75 -80q47 46 141 127q152 80 290 80q57 0 200 -40q33 -20 103 -50q60 -45 117 -107q21 -23 50 -94t29 -87v-18l-7 -110q-1 -16 2 -23q-20 -13 -52 -35q-91 -27 -271 -56t-202 -36
q-59 -2 -182 -27q0 2 -1 2t-5 -13q41 -52 184 -83q41 -25 108 -25q9 0 18 1l208 8l137 -14q29 -49 58 -78q-1 -13 -27 -63t-26 -60q0 -12 1 -16l-196 -85h-184q-105 0 -248 50t-199 92t-113 80q-6 0 -25 -12q-36 -51 -190 -128t-217 -77h-3l-166 6q-7 -2 -27 -16l-87 23
q-53 13 -76 38q-23 11 -81 39q-21 21 -56 41q-17 15 -108 97q-24 42 -78 165l-6 92q0 7 8 48q1 90 93 213t198 186q230 135 468 135z" />
    <glyph glyph-name="Ydieresis" unicode="&#x178;" horiz-adv-x="1224" 
d="M983 1727q15 -13 15 -48q-11 -27 -42 -84q5 1 12 8q11 -14 12 -17q-3 3 -33 4l5 -17q-13 0 -35 -3q-19 -14 -52 -18q-36 21 -119 49q-9 7 -9 30q-13 8 -29 24q0 43 2 45l1 -2q6 11 20 38q86 35 165 41zM277 1654v21q14 25 50 81q-4 -1 -13 -7q-13 13 -13 16l33 -7l-2 19
h37q18 12 53 16q35 -22 115 -59q5 -7 5 -31q11 -7 27 -23l-4 -45q-8 -9 -25 -36q-85 -29 -167 -29l-82 56q-14 12 -14 28zM1002 926q-4 0 -15 -9q1 -3 5 -8q0 -29 -119 -215q-17 -37 -106 -202t-104 -230q-63 -143 -63 -286q0 -30 4 -58q-15 -23 -36 -69h-3q-10 0 -18 -18
q-14 -3 -38 -12q-40 16 -76 28q-15 23 -27 25q-7 22 -25 56q0 18 -9 51q1 4 1 17t-1 39q9 91 35 240q7 10 21 23q14 12 18 36t6 32t3 10q0 4 -5 14q10 24 33 67q-14 18 -28 18t-22 -2l-15 15l-11 -7q-17 2 -49 23q-29 48 -97 151q-122 262 -216 546q-17 74 -17 98t1 30l6 82
q23 13 40 41h31q22 -20 66 -64q14 -21 32 -64q24 -36 44 -98l35 -110q39 -84 73 -164t86 -165h13q45 52 128 120q39 63 76 93q6 11 25 41l22 35q39 48 115 133v10l103 102q0 11 4 23q48 57 165 175q17 3 52 9q7 -4 7 -20q7 -5 17 -11q9 -40 38 -41q11 -57 27 -94l-8 -7
q4 -3 4 -8l-1 -1q-7 -14 -15 -48l-208 -372h-4z" />
    <glyph glyph-name="florin" unicode="&#x192;" horiz-adv-x="840" 
d="M166 1377q0 8 9 19q11 164 108 320q48 44 81 86l206 64q94 -10 142 -22t92 -50t85 -58l33 -123q0 -12 -13 -25q-14 -5 -37 -5l-18 -16l-12 2q0 -2 -34 -8q-4 -1 -4 -15h-29l-152 57h-31q-26 0 -73 -14q-74 -43 -74 -88v-1q-35 -86 -35 -158q0 -10 1 -21l29 -405l35 -229
h184q8 -2 28 -12l29 -61q28 -62 28 -74q0 -26 -38 -40q-24 -26 -105 -52t-97 -39l15 -304l4 -578v-1q0 -48 -43 -180t-43 -198l-124 -39q3 -4 15 -4l-216 -31l-88 33q-50 64 -120 182q-15 140 -17 140q1 32 18 67q7 8 21 19q10 -2 19 -2t18 2l199 -145h14q12 0 48 19
q12 31 14 63t4 78q-2 2 -5 9q3 19 12 60l-12 718q-11 21 -11 37t9 27l-18 10l-106 13l3 22l-20 19q0 10 5 14l-9 8l-9 64q0 127 95 137q12 10 32 30l-42 562v117z" />
    <glyph glyph-name="circumflex" unicode="&#x2c6;" horiz-adv-x="1006" 
d="M873 1344q-23 0 -31 6q-8 -4 -25 -11q-21 23 -79 89t-224 194q-8 -4 -25 -4l-79 -74q1 -5 4 -12q-6 -4 -17 -11l4 -15h2q1 -1 -16 -5l-185 -223l-38 6q-27 -6 -35 -11q-2 4 -10 18l-16 -3q2 5 4 13q-11 8 -29 10l-41 87q2 23 28 71h13q10 0 20 7q11 8 59 62t179 199
q39 33 103 109q24 22 63 32q12 -3 36 -8q22 -17 60 -28q70 -58 186 -178t148 -148q14 -28 43 -82q-29 -36 -45 -74q-6 -2 -32 -14q6 0 6 -1q-8 -1 -31 -1z" />
    <glyph glyph-name="caron" unicode="&#x2c7;" horiz-adv-x="950" 
d="M255 1739v-7q0 -25 44 -68q17 -11 55 -27l27 -2l69 2q84 21 134 39t61 49q3 2 23 35t102 112q16 -4 49 -9q2 -4 19 -15q14 -20 40 -55q-4 -7 -4 -21t4 -32q-26 -52 -53 -96q-32 -41 -79 -81q-135 -78 -215 -78q-17 0 -72 -7q-76 2 -91 4q-182 26 -290 211q-6 30 -6 47
q0 16 2 30t25 49q48 15 58 15h11q87 -41 87 -95z" />
    <glyph glyph-name="breve" unicode="&#x2d8;" horiz-adv-x="1516" 
d="M747 1199q-6 0 -7 4h-3q-24 0 -70 -28l-19 3q-95 80 -285 236q-3 7 -13 20q-67 61 -205 174l-38 19v5q0 4 10 17q-56 82 -56 95q0 46 40 82q31 10 59 10t107 -44q80 -44 93 -73q49 -27 119 -98l194 -157h15l274 172q39 31 130 96t103 107q43 -4 64 -4t32 1q28 -16 46 -16
h11q13 0 91 -51q8 -17 -8 -28v-16q0 -12 18 -40q-28 -3 -40 -46q-67 -43 -111 -80q-36 -12 -79 -58q-43 -28 -132 -83q-5 -15 -76 -53q-5 -3 -16 -23q-220 -143 -248 -143z" />
    <glyph glyph-name="dotaccent" unicode="&#x2d9;" horiz-adv-x="387" 
d="M334 1690q0 -20 -23 -42q-26 -11 -89 -31q2 -2 13 -2q0 -17 -2 -19q-4 7 -20 25l-11 -14q-7 6 -26 22q-22 5 -51 23q-10 40 -28 80t-18 46t14 22l-5 34q13 13 33 31q11 5 41 12q84 -35 145 -88l27 -96v-3z" />
    <glyph glyph-name="ring" unicode="&#x2da;" horiz-adv-x="782" 
d="M335 1561q0 -33 99 -33q22 0 65 14t48 29q0 12 -5 27q-38 29 -115 28t-59 -6q-33 -50 -33 -59zM524 1283q-64 1 -79 -3t-17 -4q-12 0 -18 17q-78 0 -78 -5q-5 3 -5 5l-143 71q-24 29 -72 88q-47 124 -47 176t42 77q11 9 35 9q20 51 84 136q50 16 63 16h115q4 -9 75 -36
q20 -17 78 -42l75 -82q105 -177 105 -218l-10 -97q-12 -18 -44 -52q-26 -13 -81 -44q-78 -11 -78 -12z" />
    <glyph glyph-name="ogonek" unicode="&#x2db;" horiz-adv-x="760" 
d="M489 -696h-72q-34 0 -118 28q-84 48 -119 119q-17 33 -45 143l-7 51l-5 41v87q6 1 44 275q11 80 50 143q25 6 64 15q116 -54 118 -224l-34 -287l10 -49q6 -9 29 -19l125 21q3 1 37 13t36 12h43q72 -81 72 -151v-8l-4 -69q-121 -141 -224 -141z" />
    <glyph glyph-name="tilde" unicode="&#x2dc;" horiz-adv-x="1710" 
d="M1103 1321q-21 -1 -59 13t-58 18q-66 17 -174 116t-155 99q-5 1 -77 -33t-92 -34l-248 -209q-21 2 -25 4q-24 -7 -46 -17q-15 7 -46 17q-53 73 -53 82q8 19 52 108q14 11 49 43l195 173q145 75 276 75q46 0 172 -42q43 -22 114 -68q114 -91 123 -95q23 0 67 31
q69 32 320 224q6 5 48 27q25 4 49 10q23 -10 66 -25v-9q12 -12 28 -12q2 -2 2 -6t-6 -13q12 -9 25 -22v-61l-1 2q-5 0 -27 -33q-43 -49 -138 -141q-52 -37 -93 -83q-162 -123 -258 -126q-32 -9 -34 -12q1 -1 4 -1z" />
    <glyph glyph-name="hungarumlaut" unicode="&#x2dd;" horiz-adv-x="1073" 
d="M540 1454q0 54 88 201t89 153q58 84 123 84q119 0 157 -135q21 -46 23 -46t2 1v-63q-21 -42 -34 -92q-69 -103 -215 -300q-29 -16 -87 -41l-88 68q-58 116 -58 170zM46 1447q0 53 88 201t89 154q60 83 123 83q119 0 157 -134q21 -48 24 -48v-61q-20 -41 -33 -95
q-69 -99 -215 -296q-29 -16 -88 -42l-87 67q-58 117 -58 171z" />
    <glyph glyph-name="pi" unicode="&#x3c0;" horiz-adv-x="1913" 
d="M432 -149q-4 12 -20 29l-3 -29h23zM1460 1569q-24 4 -40 4q6 -4 33 -17q1 5 7 13zM-124 1392q0 45 5 60l95 61q49 31 121 39q48 15 146 54q161 41 580 142q185 24 360 63l249 54q35 7 126 17t113 10l35 -6q35 -6 49 -6q35 -13 80 -91q7 -6 19 -16l10 -60q-10 -5 -35 -16
q-1 -3 -1 -8t7 -9q-2 -5 -16 -12l5 -19q-13 -14 -42 -38l-10 9q-12 -12 -17 -26l-12 10l-4 -4h-20l-29 14h-23q-3 -4 -3 -8t5 -10l-130 -31q-14 8 -48 25q-5 -12 -18 -27q9 -9 9 -17h-29l-9 10h-10l-24 -10q-12 0 -17 3l-23 -26h-26l-20 11q-4 -2 -12 -2t-16 3
q-12 -9 -26 -16q-15 -15 -15 -24q-1 -9 -8 -27q-8 10 -25 33q-54 -26 -90 -37q9 -9 12 -11q-10 -2 -47 -6q-11 -5 -59 -17t-52 -30q-12 0 -73 -27t-81 -59q-3 -2 -7 -2l-98 -324v-57q359 103 442 103h3l152 -4q36 -9 98 -23q147 -19 277 -149t130 -258q0 -35 -8 -148
q-14 -39 -18 -107q-31 -60 -48 -167q-26 -41 -50 -125q2 -6 2 -28t-38 -90v-5q0 -46 -38 -93q-5 -15 -24 -45q-2 7 -9 24q-7 -10 -19 -33q-5 4 -19 4q-2 -4 -41 -29q-33 11 -33 12h-2q-32 0 -62 67q0 31 -31 84q7 59 25 178q13 42 35 130q9 8 16 29q2 25 19 54
q48 171 48 192v23q9 19 9 38q0 57 -78 98q-35 18 -101 48h-11q-44 0 -116 16q-8 0 -40 2l-32 4q-2 0 -31 -11t-41 -11t-31 -8q-8 4 -59 4q-38 -14 -116 -33q-1 -5 -4 -24h-22l-14 15h-18q-4 -5 -4 -24q-54 -26 -66 -26h-2q-7 -7 -89 -81q-41 -36 -41 -68q0 -10 -41 -179
q-4 -65 -16 -138q-18 -37 -23 -179q-5 -7 -14 -19q2 -9 2 -23t-6 -30t-8 -16q-5 2 -15 12q-18 -2 -51 -8q-11 -20 -31 -54q-18 10 -31 10q0 7 4 11l-8 8q-23 -9 -25 -10q-6 5 -6 11t6 11l-8 7q-6 -5 -11 -5l-10 11l10 35q-8 9 -29 9q-17 30 -17 35v127l133 753l117 498v5
q0 4 -9 22l-46 -4q-14 -21 -32 -21t-29 10q-50 -45 -119 -69t-95 -36q-9 0 -67 -20t-78 -21q-28 16 -33 16l-50 -16q-10 2 -28 22q-56 21 -56 38q-8 9 -26 9q3 6 20 22v19q-25 28 -25 73zM1422 1534q-10 0 -19 -18q-10 11 -12 14l12 9q7 -5 19 -5zM1146 1454q-1 0 0 -1
q0 -1 0 1z" />
    <glyph glyph-name="endash" unicode="&#x2013;" horiz-adv-x="1673" 
d="M494 235h-5q3 2 11 7q-4 -7 -6 -7zM379 241q0 -4 6 -8q-10 -6 -29 -6l-14 21h-109q-24 20 -73 57q-6 27 -30 51q-22 61 -22 99t17 78q16 16 53 47l172 3l372 -21l323 21q7 0 53 17l20 -10l211 24q58 -32 119 -57q26 -30 46 -76t46 -88v-18q-6 -5 -34 -46
q-26 -18 -112 -31l-358 -25l-402 -11q-174 -4 -215 -25q-24 11 -28 11h-8q-4 -3 -4 -7z" />
    <glyph glyph-name="emdash" unicode="&#x2014;" horiz-adv-x="2503" 
d="M490 237h-4q3 2 10 7q-3 -7 -6 -7zM105 456q0 40 16 79q16 16 53 47l171 2l372 -21l1184 43q12 1 55 15q9 -2 20 -11l211 27q58 -35 119 -59q29 -36 61 -111q11 -19 31 -53v-17q-6 -4 -36 -45q-36 -27 -109 -32l-359 -27l-1264 -29q-172 -4 -213 -24l-30 10h-8
q-7 -6 2 -15q-11 -6 -29 -6q-5 6 -14 21h-109q-23 21 -74 57q-3 27 -28 51q-22 58 -22 98z" />
    <glyph glyph-name="quoteleft" unicode="&#x2018;" horiz-adv-x="522" 
d="M58 1609v87q2 0 16 52q67 44 79 44q11 0 49 -11t79 -42q30 -45 82 -139q38 -107 112 -325q0 -11 -2 -34q14 -35 15 -40v-20q-5 -2 -18 -26q-51 -14 -64 -41q-13 0 -39 6q-4 12 -38 56q-46 17 -46 32q-28 25 -81 76q-98 164 -119 268q-25 41 -25 57z" />
    <glyph glyph-name="quoteright" unicode="&#x2019;" horiz-adv-x="563" 
d="M45 1460q1 54 89 200t88 155q61 83 123 83q118 0 158 -135q21 -47 24 -47v-61q-20 -41 -33 -95q-70 -100 -216 -296q-30 -17 -87 -43l-88 67q-58 118 -58 172z" />
    <glyph glyph-name="quotesinglbase" unicode="&#x201a;" horiz-adv-x="676" 
d="M623 109q0 -36 -15 -74q-26 -113 -70 -174q-92 -93 -168 -167t-139 -87q-14 -15 -27 -19v1q0 3 -9 14h-33l-1 27q-8 3 -27 16q5 14 6 14h1q-14 18 -40 41q-3 14 -18 44q21 64 153 251t134 287q23 42 82 42q31 0 66 -22q18 -20 55 -59q50 -99 50 -135z" />
    <glyph glyph-name="quotedblleft" unicode="&#x201c;" horiz-adv-x="696" 
d="M386 1309q0 -22 -19 -29t-22 -12l3 -27q-42 -20 -68 -20t-63 22q-37 10 -62 25q-70 68 -92 181l-41 213q-2 23 -8 72q15 18 28 58q23 23 36 43l43 4l57 -10q28 -31 80 -90q2 -5 38 -70q3 -94 45 -277q14 -18 43 -57q2 -4 2 -26zM655 1418q0 -16 -33 -44l-1 -41l-13 -16
h-43q-29 20 -41 20t-18 -4q-25 17 -67 52q-20 22 -31 51q-4 3 -33 50q-48 197 -48 215t58 123q29 11 61 11q32 1 94 -65t62 -100q-1 -4 -1 -8l30 -163q24 -65 24 -81z" />
    <glyph glyph-name="quotedblright" unicode="&#x201d;" horiz-adv-x="878" 
d="M727 1815q11 0 57 -57t63 -89q-10 -73 -23 -119q-30 -59 -109 -159q-14 -31 -33 -63t-19 -34q0 -4 -11 -37q-28 0 -62 -67q-21 -7 -37 -7t-45 23t-49 31q-24 53 -24 124t4 122l8 8l1 12q-6 0 -6 -10l-215 -343q-50 -16 -53 -18l-57 11q-14 12 -41 36q-34 103 -34 117
q0 93 43 189q69 113 157 251t137 139q40 -1 62 -25t56 -62q7 -21 20 -62l-7 -47v-35l8 -8l141 179h68z" />
    <glyph glyph-name="quotedblbase" unicode="&#x201e;" horiz-adv-x="1225" 
d="M1122 90q0 -37 -14 -74q-25 -109 -72 -174q-76 -77 -160 -158t-145 -96q-14 -14 -27 -18q-2 3 -12 13h-31v30q-7 2 -27 14q4 15 5 15q-15 18 -39 40q-4 15 -17 44q20 64 152 252t135 286q23 43 82 43q29 0 64 -22q20 -21 57 -59q49 -99 49 -136zM623 109q0 -36 -15 -74
q-26 -113 -70 -174q-92 -93 -168 -167t-139 -87q-14 -15 -27 -19v1q0 3 -9 14h-33l-1 27q-8 3 -27 16q5 14 6 14h1q-14 18 -40 41q-3 14 -18 44q21 64 153 251t134 287q23 42 82 42q31 0 66 -22q18 -20 55 -59q50 -99 50 -135z" />
    <glyph glyph-name="dagger" unicode="&#x2020;" horiz-adv-x="744" 
d="M39 1541l10 33q1 8 23 42t38 35h66l145 18l42 217h41q33 0 66 -65q5 -34 10 -78l2 -63q3 -2 6 -5q120 -17 169 -53q3 -4 3 -6t-3 -3q27 -22 27 -34v-22l-36 -17q-24 -11 -24 -30l-36 -2q-52 -1 -120 -29l-10 -106v-62l-16 -287v-151q0 -51 -63 -82h-76q-12 22 -18 61
q-9 8 -12 59l43 537q-2 14 -2 22h-20q-13 0 -39 3q-13 -6 -36 -19q-10 2 -15 6l-5 -6l-60 -6q-43 0 -56 21q-5 19 -38 47q1 2 1 8t-7 17z" />
    <glyph glyph-name="daggerdbl" unicode="&#x2021;" horiz-adv-x="986" 
d="M944 983l-10 -31q0 -8 12 -28v-13q-8 -13 -27 -35q-34 -22 -34 -29q-22 -11 -72 -28l-227 -33l-4 -4v-49l14 -129l-25 -77h-16q-2 -5 -2 -13q-13 -5 -35 -16q-2 -4 -7 -15q-11 3 -15 9t-8 7q-2 0 -7 -7q-6 10 -44 17q-2 2 -3 9v15q-35 20 -35 83l-8 76v50q0 24 -6 37
q-5 6 -18 6t-22 -1l-121 -9h-14q-29 0 -71 20l-29 20q-29 60 -29 66q0 40 24 120q17 27 69 29l209 9q8 6 8 14v222h-75q-56 0 -119 11q-13 9 -39 18q-17 22 -51 54q2 12 2 22l-4 24q0 8 14 45q-1 7 -1 21t18 32q18 17 28 17h12l98 -5h113l12 10v277q0 10 9 25q4 58 49 58
q24 0 81 -51q15 -25 20 -57q24 -42 24 -64v-96q0 -20 -4 -35l2 -62h43l126 9l101 -2q8 -18 33 -33q-2 -3 -5 -5q9 -5 25 -19q6 -17 6 -46q7 -5 10 -5v-11q-17 -15 -17 -21t1 -8q-12 -14 -27 -20q-25 -32 -112 -45q-16 -12 -99 -16q-6 -4 -18 -9h-69l-7 -10v-227h271l61 -12
l41 -53v-3z" />
    <glyph glyph-name="bullet" unicode="&#x2022;" horiz-adv-x="854" 
d="M529 694q-4 8 -7 17q-11 8 -26 8l-100 -54q3 -6 5 -11h60zM393 354q-25 0 -149 43q-43 37 -145 138l-20 126q12 48 29 112q68 136 191 166l86 62q29 21 67 21t90 -19q162 -94 177 -174q18 -18 20 -34q41 -51 59 -94q0 -23 13 -67q-2 -7 -18 -94q-26 -56 -99 -98
q-6 -4 -121 -65q-5 0 -39 -12l-34 -11h-107z" />
    <glyph glyph-name="ellipsis" unicode="&#x2026;" horiz-adv-x="1659" 
d="M1604 58q0 -12 -23 -36q-26 -8 -93 -28q5 -5 18 -5q0 -16 -3 -18q-6 7 -20 25l-10 -14q-9 7 -27 22q-25 5 -52 25q-9 39 -49 118q0 11 17 27l-4 37q12 11 31 29l43 12q83 -35 145 -88l27 -94v-12zM962 64q0 -10 -23 -33q-28 -11 -92 -31q5 -2 16 -2v-20q-7 8 -21 26
l-10 -16q-11 8 -29 24q-23 4 -50 23q-12 41 -49 119q0 12 17 28l-7 35q14 12 34 31q14 4 40 12q86 -34 149 -88l24 -96q1 -2 1 -12zM335 73q0 -20 -22 -42q-27 -11 -90 -29q2 -4 14 -4q0 -17 -2 -18q-4 6 -20 24l-11 -15q-7 9 -26 23q-23 4 -51 25q-11 39 -29 79t-18 46
t14 20l-5 35q13 12 34 31q12 4 41 12q84 -34 145 -88l26 -96v-3z" />
    <glyph glyph-name="perthousand" unicode="&#x2030;" horiz-adv-x="2928" 
d="M1984 352q0 -6 1 -7v22q-1 -9 -1 -15zM2552 583q-30 0 -67 -10v-10h-3q-21 0 -116 -30q-48 -27 -136 -89q-20 -27 -59 -71v-28q12 -22 27 -43t74 -80q85 -18 85 -21h56l100 36q49 38 71 55t29 35q27 11 51 45t25 48v14l-45 59q8 3 14 16q11 -9 31 -21l9 8q-22 20 -62 53
q-7 9 -21 22q-33 12 -63 12zM1491 758q0 2 -1 2l195 31v-2q1 -1 53 -9t82 -18t61 -43q30 -32 104 -136q5 -20 20 -61q6 -47 9 -74l10 48q22 35 64 129q34 22 52 57q29 19 82 53q143 55 143 57t-1 3l195 30q1 -1 51 -10t83 -19t57 -38t107 -142q6 -20 20 -59q12 -89 12 -120
t-12 -101q-4 -11 -28 -47q-3 -23 -29 -55t-30 -43h-18l-61 -99q-24 -4 -131 -90q-23 0 -75 -24q-31 -25 -38 -25q-6 6 -9 6q-31 0 -47 -27q-11 17 -25 17l-92 -10l-80 26l-52 31q-90 31 -153 235q-6 9 -19 21v23l-14 -21q-2 -24 -28 -56t-32 -43h-15l-62 -95
q-24 -7 -131 -93q-25 0 -77 -22q-29 -26 -35 -26l-11 5q-30 0 -48 -25q-9 15 -24 15l-92 -10l-79 26l-51 31q-90 30 -154 236q-7 7 -19 22v72l-7 14l-240 -141q4 -6 15 -6q-37 -6 -42 -6q-40 -49 -102 -103q-179 -98 -222 -98l-96 10q-27 0 -41 -10q-15 7 -46 27l1 129
q0 -13 25 47q29 72 95 142t128 128q248 194 518 472t422 498q6 13 8 25q-13 6 -39 23l-20 -15q-31 21 -52 21l-90 -21q-9 0 -29 11l-55 -15q-4 -20 -14 -57l-184 -211q-10 -4 -21 -4h-16q-23 -27 -50 -37l-43 -16q-28 -20 -67 -56h-10q-8 0 -33 -14l-29 -17l-9 7
q-9 -25 -58 -32q-5 0 -5 2q1 4 9 11l-10 9q-19 -13 -117 -13l-83 6q-89 -1 -201 59t-125 114v16q13 0 18 4q-28 49 -31 94l85 346q0 17 -4 21q19 26 62 71q16 4 88 29q11 7 62 39q20 4 61 21q188 42 248 42q60 1 149 -23t114 -61q-1 -4 -6 -10l194 -116l184 20h81l70 6
q99 0 172 -44q18 -23 29 -33t30 -56t19 -62t16 -73q-18 -117 -90 -166q-10 -18 -22 -51q-11 -15 -74 -86q-12 -13 -24 -14q-12 0 -12 -2t2 -4v-24l-165 -167l6 -21q-19 -7 -57 -25l10 -9q-5 -8 -6 -13l-20 4l-51 -52q0 -3 -5 -7q13 -13 14 -13h-24q-27 -24 -27 -59
q0 -13 -49 -53q-2 -6 -40 -47t-38 -49q-35 -12 -64 -12q-7 -6 -7 -29q-15 -8 -42 -25q9 -4 21 -16q-22 4 -26 4q-11 -15 -29 -39l5 -35q6 4 86 22q47 9 54 53q38 63 64 120q34 24 54 57q27 18 81 55q142 54 142 56zM1110 316q0 -6 1 -7v23q-1 -10 -1 -16zM1680 551
q-30 0 -66 -13q0 -4 -3 -7q-18 0 -118 -31q-47 -30 -136 -90q-20 -25 -60 -72v-27q9 -15 24 -41q26 -28 77 -82q85 -20 85 -22h56l100 36q34 25 81 62q14 12 21 29q26 11 51 45t25 46v15l-45 62q6 2 14 12q10 -8 31 -21q3 7 7 9q-20 20 -61 55q-6 11 -20 22q-33 13 -63 13z
M642 1602l44 1q12 0 33 1l38 1h70l110 19q-31 16 -92 41q-34 0 -90 2l-166 -47q35 -18 53 -18zM957 1421q-20 0 -83 -20q-16 2 -42 10q-5 -8 -19 -20q-23 12 -31 12h-2q-8 -3 -16 -3t-13 7q-42 -14 -42 -16q-87 0 -127 -4q-22 8 -30 8t-10 -1q5 -5 5 -10t-2 -8q-52 0 -70 -2
q-10 4 -30 4t-40 -31q2 -10 14 -30l-5 -6q2 -5 2 -20q77 -85 180 -85h34q90 0 216 62t183 157q-39 -11 -43 -13q-9 9 -29 9zM986 1411q-1 1 -1 0h1zM1685 791h3h-3z" />
    <glyph glyph-name="guilsinglleft" unicode="&#x2039;" horiz-adv-x="988" 
d="M470 488q0 -14 66 -54t96 -49q93 -40 246 -137q9 -24 33 -68l-10 -12q0 -18 7 -48t8 -30l-5 -39q-7 -7 -15 -7t-11 1q-17 -25 -40 -41v-15l-59 -44q-29 2 -45 2t-19 -2l-75 33q-3 -7 -19 -7t-378 193q-100 68 -117 83q-78 64 -78 109q0 9 3 19q-9 22 -9 33l12 65
q30 41 117 154t326 426q23 12 69 71l72 17l77 -37l46 -170q-40 -90 -141 -220t-157 -203v-23z" />
    <glyph glyph-name="guilsinglright" unicode="&#x203a;" horiz-adv-x="878" 
d="M51 991q0 39 88 131q56 29 74 29q18 1 39 -5t33 -7q46 -33 242 -205q23 -21 28 -36q72 -71 202 -169q11 -14 62 -119q-11 -15 -21 -66t-12 -53q-92 -173 -211 -381q-21 -37 -26 -65q-9 -6 -88 -49q-17 -14 -53 -45q-94 10 -125 67h-21l-53 43v154l186 314v18l-182 175
q-111 105 -145 158q-17 46 -17 111z" />
    <glyph glyph-name="fraction" unicode="&#x2044;" horiz-adv-x="795" 
d="M1016 1881q23 0 33 -11q98 -104 98 -165q-11 -72 -11 -82l-21 -35l14 -11q-10 -34 -10 -43q-12 -18 -40 -46q0 -8 9 -8q-10 -6 -10 -16t1 -15l-1 -2q-4 2 -11 10q-3 -3 -24 -37t-21 -36t4 -5q8 4 11 4q-5 -13 -16 -44h-20q-26 -29 -26 -47t1 -24q-8 -6 -20 -14
q9 -10 9 -18l-29 -11q-11 -24 -52 -75q0 -8 10 -19l-113 -159q2 -8 2 -24q1 -16 -29 -49t-30 -72v-5q-14 -14 -41 -47q3 -6 6 -14l-47 -52q0 -6 11 -40q-17 -27 -66 -78v-29q0 -17 -15 -31t-32 -30q4 -13 4 -21t-4 -12q-47 -36 -47 -84v-8q-52 -72 -52 -91v-2
q-44 -28 -44 -59q0 -8 4 -16q-53 -21 -53 -70q0 -4 1 -9q-16 -15 -20 -34q2 -4 2 -16q-17 -13 -39 -57t-39 -52v-18l-205 -385q-1 -5 -1 -15t8 -26q-15 -58 -47 -139q-4 -11 -83 -67q2 -3 33 -16q-16 -4 -85 -67h-25q-2 0 -24 10q-6 -6 -6 -20l-20 4q-11 -14 -24 -14
q-19 0 -19 38q0 7 3 13q-39 10 -72 30l18 47q-3 27 -34 67q6 36 16 99q8 15 28 47q21 87 97 236q8 2 29 61q18 31 59 92q0 7 13 41q38 60 237 405q2 7 4 21q35 44 95 152t354 607q23 61 144 276q2 16 11 47q34 63 90 188q5 17 9 37q27 46 119 160h41z" />
    <glyph glyph-name="trademark" unicode="&#x2122;" horiz-adv-x="1815" 
d="M385 1026q-29 0 -29 3q2 15 -45 60q-4 15 -30 171v198q-44 25 -70 25h-70v12l-65 31v2q0 4 5 9q-3 11 -20 30q-2 11 -15 63t-13 53q0 51 53 101q19 10 57 24q163 34 242 39l383 20q57 25 86 25q60 0 128 -72t87 -139l157 -260q42 39 163 158q20 28 63 88q12 34 43 96
q22 27 48 27t104 -25q55 -53 67 -133t16 -162l7 -175v-27q0 -163 -75 -277l-79 -16q-37 33 -77 53q-31 83 -31 131v74q-5 8 -13 20l-143 -200q-7 -1 -37 -6q-12 -9 -76 -33v6q-45 20 -97 53q-3 12 -85 139q-27 84 -85 127q-23 -46 -37 -160t-50 -168q-27 -8 -72 -25
q-25 15 -36 15t-15 -6q-3 2 -29 28t-45 26q-10 21 -10 37t2 33v20q0 33 -15 55q11 9 11 16v76l37 180v55h-15q-2 7 -7 7l-89 -9q-22 -22 -22 -100l-16 -144l-52 -195l-27 -22v-26l-20 4q-18 -10 -47 -10z" />
    <glyph glyph-name="Omega" unicode="&#x2126;" horiz-adv-x="3039" 
d="M1993 86l-23 4q13 -4 23 -4zM2481 119l-24 -7h18zM2559 145h-18l-11 -13h17zM2224 606q-14 0 -44 10q-77 -19 -116 -30q-33 -35 -52 -86q-25 -19 -37 -25q-1 -16 -10 -54q89 -90 222 -90h72q19 0 142 29q45 27 113 73v26l-58 90q-35 17 -104 46q-49 0 -113 21
q-1 -10 -15 -10zM1342 1453q5 0 9 4q-14 8 -28 8q-9 21 -43 54l-17 -5q0 -5 4 -7q-8 2 -17 3q2 6 4 15q-18 19 -56 29t-48 14t-16 4t-19 -14q-28 13 -33 14q-114 0 -171 -72q-13 -2 -39 -12q-14 -15 -43 -37q-30 -86 -95 -272q-10 -83 -22 -147l15 -299q5 -8 18 -19l128 15
q22 0 61 -9q18 19 38 19t26 -6l49 22q8 -4 18 -10q7 4 19 18q7 0 22 -14h16q5 1 5 10l107 16q6 -2 55 -16l30 29q10 -2 29 -15q22 5 27 5q-1 -2 -1 -4t3 -6q4 5 4 10h15q6 -1 16 -1t24 1q11 -5 29 -13q14 13 26 13h28v-19q13 0 13 14h85q10 -7 29 -20l78 15q5 -3 19 -29
q43 5 57 22q121 97 313 100q10 2 43 7l34 4q249 0 425 -97q73 -38 172 -217q0 -13 1 -70q9 -12 20 -55q-8 -12 -11 -57q-4 -3 -9 -10q0 -31 -22 -78q-14 -15 -42 -43q-22 -15 -44 -50q-85 -53 -147 -83q-19 -6 -129 -32t-140 -27l-46 9q-35 0 -73 -14q-25 11 -47 11h-26v1
q0 8 -13 21q-14 0 -30 -7q7 -2 24 -10q-65 0 -70 3t-16 14q-5 0 -10 -3q-79 14 -149 88t-86 161q-6 35 -11 74l26 179l-20 12q-23 -2 -45 -2t-36 5q-17 0 -48 -7q-9 6 -43 6q-3 -2 -3 -6q5 -11 19 -18q-7 -1 -18 -1t-26 1q-5 8 -19 24q-59 0 -75 -4q0 -11 2 -12
q0 -20 -34 -20q0 1 -56 7q-9 1 -9 8q-24 -9 -28 -9q2 3 3 5q0 4 -10 4h-21l-11 -7q4 -4 20 -4q-6 -2 -34 -17q-25 9 -44 11q-5 4 -14 12q-29 -14 -56 -14q-1 -2 -1 -7t1 -12l-192 -48l-28 -30l-29 3q-14 -2 -14 -27q-12 -3 -39 -22l1 -55l-11 -14v-23l137 -381
q-8 -23 -9 -51q-1 -27 9 -32h-21l-20 13h-24l-13 -8q12 -24 26 -24l-7 -21l-14 -8q1 -2 3 -3q-13 6 -44 29q-10 -39 -29 -63h-45q-7 8 -24 20l-123 215l-136 359q-10 0 -15 5l-201 -75q6 -4 10 -4q-21 -11 -81 -28l-31 4q-17 0 -31 -14q-66 12 -71 38l16 9q-11 32 -36 98
q4 15 15 43l-5 41l41 46q52 15 171 46q14 7 29 19q26 3 82 29q24 4 68 29l-24 204l5 263q7 33 35 171q10 30 20 70t20 71q26 142 162 259t254 141q24 0 91 5l69 6q237 0 415 -157q17 -19 46 -59q24 -46 51 -142q9 -10 11 -13v-33q-46 -12 -56 -33l-21 4q-12 -9 -28 -24h-31
q-13 -17 -23 -15t-32 9q-17 23 -37 59q-31 10 -31 17zM1267 1507q2 -1 4 -1q-2 1 -4 1zM886 -196q4 -2 6 -2q-4 0 -6 2z" />
    <glyph glyph-name="partialdiff" unicode="&#x2202;" horiz-adv-x="3912" 
d="M2252 784q-20 0 -72 23l-99 -27q0 -14 2 -14q-47 -14 -96 -87t-49 -107t18 -41l88 36q2 2 108 76t133 130q-4 5 -6 13q-7 -2 -27 -2zM1383 739q-29 0 -62 -24h-23q-1 -1 -47 15t-166 16q-49 0 -231 -54q-29 -12 -88 -49q-4 1 -9 1q-33 0 -63 -40l-18 -8q-8 0 -13 6
q-295 -183 -295 -279v-50q2 -7 25 -25q113 -51 334 -51q98 -1 264 31t219 36q56 29 222 61q22 20 71 33q70 7 182 61l-20 185q0 46 23 133q4 18 26 43q18 56 76 124q59 66 92 71q15 30 98 59q6 2 21 4q34 20 188 20q14 0 152 -59q56 -47 130 -125q25 -27 38 -79l12 -97
l-45 -141q-6 -6 -22 -6l-134 -164q-14 -6 -39 -24q43 -27 92 -27h4l173 4q62 3 159 24q97 22 140 58q26 33 26 127v152q0 116 78 258q30 41 65 71t130 99q25 8 105 49t109 41h3q32 10 33 13q0 1 -3 1l186 14q7 1 31 1t105 -26t100 -30q-4 -1 -14 -9q43 -15 71 -36
q-2 -1 -10 -4q31 -39 76 -50v-55h-27q-3 -6 -3 -16q-3 1 -9 1t-16 -5q2 -12 10 -41l-16 -16q-17 2 -21 2h-6q-12 -3 -32 -3t-51 4q-52 -7 -52 -9h-111q-52 0 -112 -34q-80 -15 -184 -81t-153 -154q-6 -54 -31 -123q15 -36 15 -59q1 -23 -11 -131t-15 -171q-9 -11 -22 -36
q-23 -21 -91 -55t-125 -46q-191 -38 -235 -38t-78 10l-135 -21l-111 31l-24 -10q-6 0 -17 10q-21 -10 -35 -10t-22 14q-14 12 -45 21l-80 11q-7 0 -12 -5l-205 82q-72 -2 -117 -50l-524 -139q-8 5 -21 11q-32 -20 -90 -25t-77 -12q-7 0 -27 10l-41 -20q-6 5 -42 5
q-13 -10 -25 -10h-18l-9 10l-162 -16h-185q-18 0 -63 29q-16 6 -86 8q-64 30 -104 37q-4 6 -41 20q-116 100 -148 170t-33 163q0 93 34 173q28 42 96 105l36 36q209 144 334 189q41 33 107 51l112 32q9 2 21 11l233 43h207v125q0 83 4 119l17 188l9 41v61l47 313
q11 11 17 23h3q14 0 38 20h25q9 0 65 -50q13 -9 36 -13q63 -71 63 -191q0 -65 -14 -123q-5 -40 -8 -43q-1 0 -2 8q0 -14 5 -50q-2 -49 -13 -144v-380l10 -99q0 -8 -1 -14q-11 -9 -11 -31l-32 -22q-10 4 -20 10q-6 -2 -31 -24q-23 10 -38 24h-31z" />
    <glyph glyph-name="Delta" unicode="&#x2206;" horiz-adv-x="1790" 
d="M1301 299l-273 649q-25 -11 -65 -103q-11 -13 -39 -30q-23 -37 -72 -109l-47 -128l-256 -451v-24zM880 1296q0 18 -2 23q2 48 66 110q15 7 36 7t54 -22q35 -6 64 -40t78 -94q173 -283 276 -604q15 -46 56 -103q-1 -5 -1 -11t1 -15q63 -163 121 -248q20 -37 23 -75
q26 -33 49 -77l5 -69q0 -109 -106 -109q-3 1 -31 4l-608 -127q-103 -22 -335 -72t-395 -61l-88 14q-6 9 -6 29q-16 13 -33 25q-26 25 -31 77t-12 68q2 25 29 68q4 43 64 51l16 65q129 183 267 417q103 114 116 184q7 6 18 16q74 120 211 358q12 39 55 116t43 95z" />
    <glyph glyph-name="product" unicode="&#x220f;" horiz-adv-x="2015" 
d="M870 1833q34 0 72 -29t39 -59q5 -6 12 -17q0 -9 13 -61l-164 -686q8 -6 18 -15l269 13l382 -6q27 -3 129 -13t123 -32q21 -2 59 -26t48 -44q16 -66 16 -112t-12 -86t-32 -107q-15 -76 -60 -291q-23 -38 -81 -145q-20 -16 -48 -27q-9 5 -22 17q-7 0 -17 -11l-25 21
q-3 -1 -8 -1t-21 23q-28 3 -54 39t-29 37v114l71 367q-14 20 -18 21h-428q-11 0 -20 -11q-9 5 -33 5q-59 -15 -66 -15l-35 5q-76 0 -170 -38q-10 -8 -29 -29q-73 -366 -79 -495q-2 -33 -22 -87t-101 -135q-7 5 -23 5q-8 25 -13 25h-28q0 3 -8 11q-8 -21 -23 -21
q-40 63 -92 74q0 11 -10 50q4 22 4 64v76l72 424l-4 4l-240 -41q-5 -1 -14 -1t-18 7q0 6 14 22l-9 13h-28l-13 -10q-20 20 -51 20l-32 72q3 4 14 59q-4 5 -4 37q80 89 213 100q68 5 244 19l139 506q2 6 82 241q54 160 151 160zM2002 1337q-4 -1 -16 7t-13 12q0 4 7 18
q-2 6 -20 15q2 14 3 16q-3 4 -14 4q0 7 14 23q0 4 -3 7q1 7 7 27v1q0 50 37 83t82 33t124 -70l16 -90q-6 -32 -26 -106q-35 -11 -84 -42h-33q-15 40 -50 77q-9 -5 -30 -15h-1zM31 711z" />
    <glyph glyph-name="summation" unicode="&#x2211;" horiz-adv-x="2037" 
d="M821 848v-1q-30 21 -39 21q-47 0 -94 -21q0 -3 -5 -7q-7 10 -18 10q-11 -12 -46 -25v-3q0 -11 -13 -27q-2 -2 -23 -7l-122 -105h72q63 0 153 44t139 100q-3 21 -4 21zM305 444q0 -97 150 -143q102 -33 206 -33h60q0 1 121 15q106 24 280 87q55 31 151 91q2 18 9 57
l-51 266v6q0 57 42 105q39 114 228 156q115 24 144 24h32l129 -4q41 -1 69 -14l66 -29q0 -10 -7 -20q5 -16 5 -22t-1 -7v-16q16 -8 47 -33q-27 -19 -51 -25q4 -12 4 -17v-1q-13 -19 -29 -19q-4 -3 -4 -23l-248 -47l-8 5l-161 -68l-3 -16l32 -159v-60l11 -68q0 -33 -42 -98
q0 -11 -16 -47q-21 -17 -69 -60q-126 -59 -319 -135l-263 -74l-227 -18q-12 11 -52 11h-67l-39 18l-35 -5q-65 29 -195 99q-58 47 -104 135t-45 154q0 16 8 38q7 259 205 390q17 27 37 45q22 11 70 31q6 8 22 23q203 130 371 141l99 -15q13 -20 36 -35q21 0 27 -4t51 -43
q57 -145 57 -154q0 -51 -12 -78t-12 -32t6 -15q-34 -30 -54 -79q-188 -195 -424 -195l-69 -6q-5 0 -30 5l-35 8q-27 24 -81 67q-22 -18 -22 -60z" />
    <glyph glyph-name="periodcentered" unicode="&#x2219;" horiz-adv-x="387" 
d="M318 589q0 -20 -22 -42q-28 -11 -92 -31q5 -2 15 -2v-21q-6 9 -22 27l-9 -16q-10 7 -28 25q-23 4 -52 22q-9 41 -47 119v1q0 12 17 27l-6 35q14 13 33 31q12 4 40 11q86 -33 146 -87l27 -96v-3z" />
    <glyph glyph-name="radical" unicode="&#x221a;" horiz-adv-x="2158" 
 />
    <glyph glyph-name="infinity" unicode="&#x221e;" horiz-adv-x="2861" 
d="M1139 389q-14 -4 -30 -19q10 5 30 19zM629 982q8 0 13 -7q-31 -18 -56 -27q-16 -16 -68 -57t-85 -84q-55 -125 -56 -127t5 -30q3 -52 45 -89q43 -37 101 -37t80 22q62 16 185 45l191 66q32 19 88 58l-361 336q-31 -21 -54 -21q-26 -27 -40 -49q4 1 12 1zM1194 387
q0 -1 25 -6q10 13 10 21v10q-12 -17 -34 -25h-1zM2177 309q11 0 102 16q21 11 58 20q23 22 70 38q-64 -15 -184 -47q-56 -7 -150 -20l92 -7h12zM1968 863l-1 24q-4 -4 -13 -7q7 -6 7 -8q-17 -7 -27 -18q16 0 34 9zM2538 817v19l-62 67l-193 31q-17 -4 -44 -10q-29 14 -33 14
q0 -10 -5 -14l-21 10q-26 -8 -66 -25q15 0 15 5l16 -9l-157 -73l-9 6q12 7 27 18h-17q-6 0 -21 -18q-8 -14 -22 -31q-103 -50 -176 -106l243 -65h219q9 0 22 9q117 20 216 103q68 43 68 69zM2087 893q7 0 21 8l-31 -5q3 -3 10 -3zM639 1350h83q10 -3 51 -17q5 6 20 6
q39 -33 94 -66q49 -47 209 -190q56 -51 271 -190h16q9 8 79 59q12 5 154 80q6 4 26 23q124 71 250 139t259 94q9 10 25 10l265 4h1q64 0 162 -93t144 -164l58 -270q-7 -7 -7 -17t1 -16q-20 -41 -64 -119q-33 -35 -92 -105q-16 -2 -105 -79q-227 -140 -292 -140q-15 0 -25 10
q-35 -10 -46 -20h-83q-34 0 -56 14q-7 -4 -32 -4l-194 35q-9 31 -44 31q-2 -2 -28 -11l-325 118h-56q-8 -24 -26 -40q-11 0 -16 -6q1 4 1 11t-2 15q-15 -2 -42 -24q0 -6 -3 -16q-18 -10 -22 -16t-13 -19l-291 -115q-144 -56 -252 -76q-6 -5 -6 -10q-54 -18 -115 -22l-110 20
q-6 -4 -6 -19q-22 13 -43 9q-54 37 -158 117q-43 59 -119 182q-4 12 -56 156l-11 82l9 47q0 71 49 215q96 157 353 294q12 9 61 60q81 33 99 33zM2085 939l1 -1h-22l-53 -27q0 -4 6 -15l70 42q7 -3 39 -14q5 14 16 35l-54 -20h-3zM2088 938h-1h1zM2147 961q22 1 47 18z" />
    <glyph glyph-name="integral" unicode="&#x222b;" horiz-adv-x="1308" 
d="M226 -597q14 0 26 3l133 -69h41q18 16 18 30v1l11 224v40q0 30 -9 72q2 6 2 16t-8 30v182l-42 520v174l-10 57l3 339q10 81 33 267t76 327q1 5 4 26q31 46 48 90q13 16 20 36q8 20 46 58q38 37 71 46q97 26 141 26q121 0 259 -80q45 -19 75 -59t31 -60q0 -20 -2 -29
q10 -9 25 -35q0 -14 -4 -24l-2 -11q-24 -11 -29 -11l-46 15q-26 -10 -36 -10l-105 53q-26 0 -43 10q-1 0 -11 -5t-14 -5l6 14h-89q-41 -47 -72 -67q-16 -40 -62 -206q-11 -63 -30 -245l-12 -195l21 -316l21 -156v-53l62 -595q3 -46 0 -76q2 -4 19 -4l19 -360
q-5 -60 -25 -165q-88 -150 -208 -213q-27 0 -76 -5l-93 14l-26 -5q0 2 -130 22q-15 2 -40 19q4 5 4 9v5q-16 10 -45 29q-13 20 -35 52q0 16 -10 60l-10 44v98q16 7 38 54l45 3q12 -6 26 -6z" />
    <glyph glyph-name="approxequal" unicode="&#x2248;" horiz-adv-x="2654" 
d="M223 139q-37 0 -71 47l-33 27l-16 39v137q0 45 52 92q113 79 396 251q75 44 224 105q54 2 110 15l110 7h8q71 0 314 -60q79 -49 211 -149q39 -23 110 -68q17 0 78 -31q16 0 51 -20q8 -2 72 -9l23 -8l155 17q94 27 183 100q16 11 135 83q6 -2 25 -2t48 2q0 -17 6 -36
l25 -16l33 -151l-22 -63q0 -8 7 -14q-207 -254 -341 -287q-77 -18 -119 -18l-131 -15q-230 0 -619 316q-11 6 -91 30t-120 25q-40 2 -99 4q-26 -10 -72 -12q-139 -47 -173 -68t-110 -73l-271 -184q-51 -13 -88 -13zM2589 1226q0 -17 -7 -28q22 -43 27 -78q-14 -11 -14 -42
v-20q-18 -20 -53 -61q-176 -112 -288 -198q-200 -90 -298 -90t-208 43q-58 23 -202 135t-202 131q-5 6 -46 29q-97 33 -117 33h-143q-47 0 -158 -31q-130 0 -255 -86q-61 -21 -278 -190q-61 -23 -61 -26l-110 15l-57 61q-5 31 -16 94q0 42 27 125q265 209 462 302
q71 8 117 34q319 60 443 60t237 -62q59 -14 261 -143t264 -129l48 -4q135 0 414 175q127 39 127 44h25q61 -76 61 -93z" />
    <glyph glyph-name="notequal" unicode="&#x2260;" horiz-adv-x="1798" 
d="M1338 709q-17 0 -21 -5q-6 0 -24 15q-9 0 -11 -8l-14 2q-3 3 -8 11q-6 -2 -20 -8t-70 -12l3 15l-14 3q-6 -7 -18 -18l-109 -12q-18 6 -51 19q-37 -7 -98 -52v-25l59 -7l69 12l466 2q16 -2 60 -20q7 -19 24 -39q-2 -11 -10 -31q16 -17 16 -41t-2 -40q13 -7 29 -26
q-14 -4 -152 -67q-47 -9 -139 -27h8q0 -5 -174 -7l-418 -5q-20 0 -49 -4q-20 -14 -78 -118t-108 -216t-60 -112q-2 4 -7 5l-65 -43q-38 25 -49 25q-12 8 -45 20q-3 11 -27 63q-7 31 -7 105l110 264l-5 5l-184 4l-44 22l-56 86q-4 54 -4 66v14q4 35 40 64q31 21 64 42l77 -9
q13 2 42 2q26 -4 83 -4t169 8q20 16 44 61q-13 21 -29 23l-384 8q-64 8 -116 148q6 26 22 75q23 22 50 61q42 10 85 11l495 2l142 6q51 47 101 115q57 39 134 120q77 58 213 148l15 -13l21 -3q7 2 15 2h11l22 -21q-6 -15 -6 -38t34 -44l-4 -26q-7 -46 -193 -226q1 -4 4 -8
l485 4q7 -4 23 -19t16 -17q1 -19 26 -75q-7 -11 -7 -23t2 -22q16 -16 39 -53q-16 -8 -23 -12l-4 -27q-36 -11 -100 -36q-59 -9 -178 -21q-4 -2 -12 -10q-88 -7 -76 -13q-28 5 -45 5z" />
    <glyph glyph-name="lessequal" unicode="&#x2264;" horiz-adv-x="1579" 
d="M1455 328q0 -14 17 -35q-12 -20 -23 -20q-8 -19 -8 -29q-30 -13 -61 -45q16 -15 31 -27q-23 4 -66 25h-19l-14 -11v-12l16 -10q-7 -16 -7 -17q16 -13 26 -8l20 -25h18q29 -28 85 -56q8 -27 42 -47q0 -23 4 -64q-9 -15 -9 -19q14 -15 16 -18q-7 -2 -40 -24v-27
q-13 0 -23 -11q-7 5 -25 5q0 -7 10 -7q-24 -12 -61 -32l16 -15q-5 -8 -7 -12l-279 -22h-1l-55 9l-34 -9l-590 -5q-60 -20 -112 -20t-82 20q-22 -6 -27 -6q-8 6 -32 25t-45 19h-1q-10 9 -10 30q-2 4 -26 14q-5 19 -29 44q-17 67 -17 96t30 90q22 9 62 27l259 22l338 18
l167 -18l259 14q27 1 41 17l-8 12q-35 13 -156 62t-311 126l-168 88q-126 67 -225 128t-186 143q-36 100 -36 139q1 4 8 15q-6 7 -6 17t22 50q22 41 23 43l251 219q43 30 129 92t250 167l37 24q25 4 47 30t70 84q-3 0 -3 2t50 18q11 -4 72 -7l6 5l128 -160q-14 -12 -14 -28
l12 -45l-73 -96q1 -4 1 -10t-1 -13q-21 -24 -70 -76q-61 -30 -61 -31l-18 15l-16 -10q0 -14 5 -21q-10 10 -13 0q1 -4 5 -7q-21 -13 -55 -29l-10 10q-32 -19 -39 -39q-29 -7 -45 -35q-25 -2 -67 -39h-20l-166 -157v-13q122 -84 210 -119q174 -98 339 -133q29 -31 154 -57
q41 -28 117 -76t79 -93q-2 -5 -2 -19z" />
    <glyph glyph-name="greaterequal" unicode="&#x2265;" horiz-adv-x="1752" 
d="M1459 172q29 0 63 -14t63 -23v-13q0 -10 7 -28q18 -20 45 -31q26 -34 67 -98v-64q-9 -4 -43 -15v-31h-14q-22 0 -42 -9q0 -8 -2 -18q5 -8 20 -29h-25q0 17 -11 25l-38 8q-5 0 -9 -2v-18q2 -7 15 -11q-4 -10 -13 -23l-213 36q-66 -20 -164 -20l-92 9l-322 -9
q-166 -4 -313 -34t-147 -33q-29 0 -72 25h-13l-11 -4q-17 0 -54 33h-1q-23 0 -70 65q-10 30 -28 66q-5 14 -5 46q0 79 57 130q10 9 36 17l195 27q9 7 20 18q-7 12 -25 32q-21 6 -46 33q-24 71 -52 83v62q2 36 28 99q120 112 328 260q40 23 124 71t105 93q-233 172 -440 354
q-14 13 -161 152q0 17 -15 53l-15 37v79q0 89 105 138q26 -17 73 -29q14 -14 63 -41q65 -51 296 -254q72 -64 317 -227q70 -83 153 -109q46 -43 56 -43t16 4l89 -99q-5 -5 -5 -18l5 -40l-5 -28q0 -16 7 -32q-21 -25 -53 -67l16 -37l-44 -21v13q0 7 -1 18l-173 -78q-4 6 -9 6
q-4 -12 -22 -31q-9 -5 -40 -5q-39 -33 -72 -47q-40 -35 -50 -35h-11q-9 -7 -20 -31q-53 -28 -149 -128t-149 -118q-2 -1 -2 -5t4 -8q-36 -24 -47 -40l33 -4l47 -4l844 14h11z" />
    <glyph glyph-name="lozenge" unicode="&#x25ca;" horiz-adv-x="1634" 
d="M1152 469q-25 31 -66 91q-21 20 -57 52q-35 57 -103 138q-69 79 -97 95l-175 -182q-2 -13 -60 -73t-58 -70l-66 -61v-22l370 -365zM68 412q0 47 40 115q21 12 261 248q96 96 169 186l160 196q11 19 37 62l137 -11q15 -20 56 -61h36l52 -45l41 4q45 -35 135 -185
q67 -87 141 -177t160 -132q13 -26 56 -34q6 -14 10 -36l6 -33l-14 -16v-3q0 -11 10 -33q-8 -25 -41 -62q0 -32 -6 -50q-8 -11 -27 -16q-30 -36 -73 -74q-24 -38 -70 -116q-43 -45 -75 -104q-4 0 -35 -59q5 -3 20 -13h-28q-56 -46 -93 -137q-17 -12 -55 -45v-27q-7 -6 -18 -6
q-9 -12 -26 -39q-2 -16 -18 -49l-23 6q-23 -16 -69 -47l-41 6l-60 -20q-129 59 -176 143q-53 55 -158 149q-24 31 -77 66v17q-81 73 -239 221q-105 98 -105 211z" />
    <glyph glyph-name="apple" unicode="&#xf000;" horiz-adv-x="1416" 
d="M47 522q0 68 23 117q19 101 92 197t141 110q6 9 18 18q93 29 148 29q20 18 67 18h80l234 -45h5q84 0 214 83h24l81 -31l114 -68l27 -90q-9 -35 -35 -69q-60 -21 -130 -89t-70 -119q0 -19 31 -45t61 -29q65 -30 108 -77v-57q8 -15 20 -15l21 -87q-25 -38 -33 -72
q-60 -63 -134 -91t-199 -68l-185 13l-84 -8q-117 0 -368 103q-74 56 -181 153q-27 47 -76 137l-3 56q-11 13 -11 26zM1137 1398q0 -95 -119 -243l-162 -131v-27l-22 -11q-74 12 -74 166t87 275q3 5 3 21l199 157h20q50 0 61 -97q3 -29 31 -87q-16 -14 -24 -20v-3z" />
    <glyph glyph-name="fi" unicode="&#xf001;" horiz-adv-x="1732" 
d="M1254 1449q-30 0 -58 64q-11 2 -28 10q-31 69 -144 75l-76 5q-3 0 -170 -38q-12 -5 -30 -24q-5 1 -10 1q-49 0 -81 -62q2 -5 17 -5l9 16q19 0 23 5v-21h-20q-31 -22 -72 -94q-58 -70 -92 -205q-34 -134 -34 -212t10 -132q12 -7 24 -7h16l786 43l238 -9q105 -92 105 -317
q0 -422 -117 -500q-6 -2 -16 -2t-31 6q-17 -14 -55 -43q-21 -2 -32 -7q-18 0 -36 5l-43 94l15 109l-2 364q-62 22 -79 22h-18l-267 -11q-64 -13 -75 -13q-18 -6 -55 -28h-18q-19 20 -40 20l-45 -10q-4 0 -47 2l-47 2q-18 0 -63 -23q0 -4 4 -10q-8 -23 -31 -67l99 -267v-71
q0 -4 10 -15q-10 -24 -10 -53q-18 -11 -58 -37v2q-1 0 -4 -14l24 -21q-9 -10 -3 -16q-21 0 -25 3q-2 -3 -2 -18h-35q0 9 -12 27q-11 -7 -11 -25q-85 65 -163 218q-14 26 -113 282q2 3 2 22q-12 18 -31 27l-22 -5q-13 -15 -37 -31q-13 7 -16 7h-37q-11 18 -29 20l-33 4
q-57 53 -57 124l8 27q-2 5 -2 18q0 14 21 52t48 55q5 -4 11 -4l49 8q50 9 65 9l31 18l9 240q3 88 79 384q27 60 76 174q7 5 45 59l177 125q177 74 240 74h2l138 -4q49 -1 117 -34l94 -45q25 -24 82 -72l37 -143l-27 -68q0 -10 7 -20l-13 -13l-34 5l-11 -11h-1zM1677 1208
q0 -32 -6 -49q-42 -35 -42 -46q0 2 -10 3h-1q-12 0 -22 -20l-13 -26q-12 6 -23 17q-12 -15 -39 -42l-18 11q0 19 3 20h-62q-24 6 -32 14t-7 49q-11 11 -25 31v21l12 15t8 20t-6 27q20 30 54 97q18 9 51 44q20 -4 41 -4t43 4q28 -22 61 -88t33 -98z" />
    <glyph glyph-name="fl" unicode="&#xf002;" horiz-adv-x="1644" 
d="M233 961q20 0 43 5q10 -4 22 -11q25 2 42 25v134l51 292q4 11 17 55q28 101 152 258q120 89 403 153l122 -5q94 -3 175 -78q60 27 80 27t68 -38t62 -66q52 -124 62 -236t26 -319l-3 -12l10 -80v-82l14 -246l2 -456v-36q0 -76 -2 -195q-14 -57 -17 -60q-1 0 -1 4l-68 -54
h-33q-25 5 -44 18q-18 13 -22 13t-26 -11q-9 13 -36 31q-11 20 -11 32t4 18q-7 7 -24 27q-26 76 -26 86v11l33 399v260l-11 50v89l-40 520q-2 22 -51 92q-38 10 -76 10q-178 -1 -295 -85t-139 -236q-24 -48 -24 -90l-25 -195q20 -13 43 -13l298 -5q44 -16 94 -29
q59 -41 63 -96q12 -10 34 -31q-9 -32 -36 -96q-125 -57 -140 -57h-143l-123 -15l-51 -3q-18 -18 -18 -23v-74l8 -6q6 -97 34 -214t45 -117q6 0 6 11v-99q0 -17 -36 -80q-50 -20 -91 -20t-55 10q-13 -2 -39 -21h-17q-9 6 -9 27q-21 14 -40 48t-31 54l-83 462q-6 8 -15 19
q-18 -11 -29 -11h-89q-88 13 -102 13q-37 11 -81 62t-45 86q0 4 1 7q-14 25 -14 51t26 76t41 57q39 18 74 18l75 -8q11 -1 31 -1z" />
    <glyph glyph-name="Lslash" horiz-adv-x="1616" 
d="M1461 164q-27 -9 -43 -9t-74 -14q-7 4 -42 4l-108 -20q-6 0 -22 7l-206 -44l-32 4q-13 0 -62 -9l-223 -61q-2 1 -15 5q-8 -5 -48 -21t-51 -17l-8 5l-36 -15q-34 -14 -44 -14t-13 2q10 2 25 9q-13 6 -30 6t-25 -4q-11 16 -39 26v3q0 7 -11 13q-4 -1 -14 -1t-28 29
q-16 29 -25 38l-9 53l82 585q0 5 -6 22q-36 -31 -88 -94l-137 -46q-43 24 -78 66q-4 18 -14 55l41 111q16 9 43 22q98 88 289 264q6 44 16 169l22 438q20 10 20 21t-10 22q16 20 43 68q13 0 28 15h17q88 0 140 -110q27 -58 28 -107l1 -110l-17 -114l11 -60q42 18 108 60h13
q19 0 38 5q4 -1 4 -6t-4 -17q2 3 28 -2q1 -13 8 -18l-12 -8l1 -14q21 4 25 4q-2 -8 -10 -23q6 -2 21 -6v-27l-115 -143q0 -8 8 -8q-33 -29 -97 -86q-47 -16 -47 -73l4 -54q0 -36 -4 -54t-5 -27q0 -8 -8 -30v-54l-59 -419v-33h44l81 22l461 72h45l137 23q6 1 30 1
q24 1 79 -31t80 -76q-4 -18 -4 -43q-5 -2 -17 -13v-32q-2 -2 -36 -13q-2 -7 -13 -38h-34l-19 -19q5 -4 21 -12zM647 22h2h-2z" />
    <glyph glyph-name="lslash" horiz-adv-x="1058" 
d="M736 77q0 -48 -54 -91l-23 3q-4 -5 -14 -18l-45 25l-14 -43q-9 7 -9 17t1 14q-33 22 -38 33l-22 48h-30l-21 16v607l-17 4q-38 -49 -159 -156q-31 -14 -94 -47q-11 9 -27 9q-4 -5 -29 -12h-1q-33 0 -111 102v18q0 23 24 74l33 66q32 18 90 68t307 259q10 33 28 128
q3 105 22 318v176q0 8 9 26q0 8 -7 8q7 25 22 40q10 83 84 83q62 0 88 -56q4 -25 31 -67q-10 0 -14 -4l31 -129l-7 -267l147 82l22 -22h38q4 -9 11 -22q-9 -17 -24 -54q1 -3 4 -7q15 7 29 7l-262 -397v-286l9 -278l13 -231q-6 -13 -22 -31q1 -7 1 -13z" />
    <glyph glyph-name="Scaron" horiz-adv-x="1303" 
d="M380 1732v-8q0 -24 43 -67q17 -10 55 -27l27 -2l70 2q83 22 133 40t61 48q3 2 23 36t102 111q17 -4 50 -9q1 -4 18 -15q14 -20 41 -55q-5 -8 -5 -22t5 -31q-27 -51 -54 -96q-32 -41 -79 -80q-134 -79 -215 -79q-17 0 -72 -7q-76 2 -91 4q-182 26 -290 211q-6 30 -6 57
t26 69q50 15 60 15h10q88 -41 88 -95zM893 1432q8 0 80 -27q24 -20 84 -60v-28l19 -34q7 -13 7 -23t-1 -16l-6 -33l-26 -26h-91q-12 0 -42 11q-67 7 -98 7t-255 -38q-35 -6 -106 -44q0 -8 12 -18q20 -7 114 -47t143 -54q50 -20 149 -65q86 -20 151 -69q48 -16 105 -64
t71 -101q22 -17 35 -74t13 -87t-30 -106q-14 -25 -46 -71q-23 -22 -57 -64q-20 -1 -54 -25t-96 -65q-49 -19 -142 -62q-138 -41 -138 -43q-11 0 -20 5q-23 -12 -28 -13l-10 5q-21 0 -67 -25q0 -8 4 -10l-279 -61l-165 17q-14 13 -47 38q0 9 9 18l-22 20q0 13 5 16
q-8 11 -21 29q8 9 11 53t31 61q37 8 110 28q15 1 79 11q10 9 38 24l39 -4q12 14 48 24t226 73t228 88q31 12 112 74q-4 7 -29 27q-33 20 -290 144q-39 12 -185 76t-193 100q-78 28 -166 131q0 8 7 16q-25 66 -28 66q0 69 16 100q33 63 139 97q45 14 178 54q190 27 190 30
q11 0 14 -3q40 20 83 20h108l18 -3h62zM567 68q2 -1 3 1z" />
    <glyph glyph-name="scaron" horiz-adv-x="1024" 
d="M865 654q4 0 4 3t-127 35q-128 17 -154 17l-142 -19q4 -4 4 -12q13 -8 36 -24q489 -195 489 -430q0 -46 -23 -97q-16 -27 -145 -79t-199 -52l-109 13q-24 0 -44 -7l-99 20h-86q-18 0 -80 22t-78 30q-5 22 -29 47q0 11 5 16l-10 10q5 21 5 45t-11 43q69 29 90 29h75
l103 14h68l167 21q14 12 15 12q-4 7 -25 23q-31 13 -117 49q-295 127 -338 287q-6 25 -18 41v108q0 8 18 44q9 107 405 107q0 -1 171 -22q117 -42 156 -65q82 -48 117 -123l-29 -58l4 -12l-54 -36h-15zM282 1346v-7q0 -25 44 -68q17 -11 55 -27l27 -2l69 2q83 22 133 40
t62 48q2 2 22 35t103 112q16 -4 49 -9q2 -4 19 -15q14 -20 40 -55q-4 -8 -4 -22t4 -31q-26 -52 -53 -96q-32 -41 -79 -81q-135 -78 -215 -78q-17 0 -72 -7q-76 2 -91 4q-182 26 -290 211q-6 30 -6 47t2 31t25 48q48 15 58 15h11q87 -41 87 -95z" />
    <glyph glyph-name="Zcaron" horiz-adv-x="1886" 
d="M684 1754v-7q0 -26 43 -69q18 -11 56 -26l26 -3l70 3q84 20 133 38t62 49q2 1 22 35t103 113q16 -4 49 -9q2 -5 19 -16q13 -20 39 -54q-4 -8 -4 -22t4 -32q-26 -51 -53 -96q-32 -41 -78 -80q-135 -79 -215 -79q-18 0 -72 -7q-76 2 -91 4q-182 26 -291 211q-5 30 -5 47
q-1 16 1 30t25 50q49 14 59 14h10q88 -40 88 -94zM1287 1h-160l-18 3l-44 -3q-40 0 -90 -5l-7 8l-363 -13l-273 -26q-7 -5 -14 -13l-130 -21l-54 16h-35q-8 7 -26 23q3 9 3 18q-38 57 -39 57v55q8 11 11 35l4 30q54 67 188 193l461 429q41 40 159 154q26 17 71 68l131 142
l-5 4l-164 -7h-6q-5 0 -26 7l-60 -13l-338 -25h-8q-20 -1 -33 9q-20 3 -39 14q-12 18 -25 34t-13 20l4 48q1 13 -2 24l24 71q12 18 40 36q42 10 96 15l442 35h180q77 -9 184 -30q17 -15 50 -44l33 -86v-88q-66 -84 -108 -137t-179 -201q-17 -10 -81 -77t-94 -85l-120 -120
q-6 -1 -13 -6q-100 -125 -200 -196q-16 -21 -36 -46q-13 -11 -44 -42l6 -5h10l235 13l732 -8l91 8l54 -7q4 2 23 11l93 -11l41 -21q10 -26 36 -70q-1 -3 -1 -9t3 -16l-9 -31q0 -7 6 -12l-17 -16v-8q6 -1 14 -7l-21 -41q-12 -2 -35 -13q3 -10 3 -18q-11 -5 -21 -7t-9 -6
l-454 17q-7 -7 -14 -7z" />
    <glyph glyph-name="zcaron" horiz-adv-x="1262" 
d="M368 1235v-7q0 -25 44 -68q17 -11 55 -27l27 -2l69 2q83 21 133 39t62 49q2 2 22 35t103 112q16 -4 49 -9q2 -4 19 -15q14 -20 40 -55q-4 -7 -4 -21t4 -32q-26 -52 -53 -96q-32 -41 -79 -81q-135 -78 -215 -78q-17 0 -72 -7q-76 2 -91 4q-182 26 -290 211q-6 30 -6 47
q0 16 2 30t25 49q48 15 58 15h11q87 -41 87 -95zM753 262q11 0 20 -10q37 15 90 16l132 5h7q35 0 81 -13q5 -5 21 -18h25l36 6q9 -17 20 -68l21 4q-1 -2 -1 -8t7 -21q-11 -3 -31 -20q1 -3 4 -21q-15 -7 -34 -13q22 -13 26 -18q-16 0 -34 11q-39 -16 -63 -20v-9q0 -15 -7 -23
l-272 -36q-15 -15 -15 -20l-316 -15h-167l-207 66q-10 24 -36 73l-11 145q14 64 119 124q19 11 150 84q54 30 198 151q-1 4 -5 9l-204 -17l-92 26q-49 38 -49 130q0 39 22 94q21 9 38 29q31 11 72 13l193 11q23 -5 56 -11l178 11q9 1 20 1q74 0 164 -34q17 -13 17 -31
q11 -7 33 -22q14 -25 49 -75v-17q-1 -4 -7 -35q-4 -73 -82 -136q-67 -42 -133 -83q-80 -67 -239 -209q16 -10 45 -10l38 4l83 -14q6 2 24 14h16z" />
    <glyph glyph-name="brokenbar" horiz-adv-x="450" 
d="M186 626q0 10 2 24q7 5 13 5l12 25l6 -6l5 9h11l33 -9q8 -4 17 -17q56 -11 60 -117l10 -251q1 -13 1 -25t-1 -22l-2 -38q4 -2 7 -7l-7 -287l-24 -285l-6 -10q-3 -1 -8 -1t-10 5l-6 -6l-18 -2q-3 -6 -11 -21q-28 4 -33 4l-53 54q-2 -2 -5 -2t-6 2l5 7l6 -2l8 7
q-4 8 -19 13l-8 87q3 13 8 23l-3 41q1 1 16 33q-3 25 -3 53v41q4 0 7 2q-1 15 -1 29t3 18q-4 3 -6 9q10 28 15 56l-2 3v10q-1 5 -1 9l5 58q0 19 -2 43q3 14 11 39q0 23 -11 51l-13 332q-2 6 -2 16zM176 1051l-3 74q0 18 6 22q0 41 2 47q-2 2 -5 7q10 30 14 59l-2 2v8
q-1 3 -1 12t7 24q0 25 -2 77q2 13 9 38q0 23 -9 52l-14 331q-2 7 -2 26t15 19l11 25l7 -7l4 8l13 3l32 -11q8 -2 16 -16q58 -11 62 -117l9 -251v-47q-1 -36 4 -46l-4 -286l-24 -285l-5 -10h-8q-9 0 -12 4l-5 -6l-21 -2q-2 -7 -10 -21l-31 4l-55 54q0 -2 -4 -2t-7 2l5 8l6 -5
l7 9q-3 9 -18 13l-8 88q2 11 8 22l-4 41l6 2q0 10 11 31z" />
    </font>
</defs>
</svg>
